22 De Julio (2018) Web-DL Latino

22 De Julio (2018) Web-DL Netflix Latino. Mega, Google Drive. Narra el atentado terrorista más letal de la historia de Noruega y los sucesos posteriores. El 22 de julio de 2011, un ultraderechista radical detonó un coche bomba en Oslo y luego disparó a los adolescentes de un campamento de verano en la isla de Utøya. Murieron 77 personas. A través de los ojos de un superviviente, y en paralelo a su recuperación física y emocional, “22 de julio” retrata la trayectoria del país para lograr su curación y reconciliación.



Titulo original 22 July
Audio Español Latino AC3 5.1 Netflix - Ingles AC3 5.1 Netflix
Calidad: WEBDL Resolucion: 1920x1036p Formato: MKV
Encoder: METCON Peso: 6.19 GiB Duracion: 2h 23m
Subtitulos: Español Latino SRT - Ingles SRT
  • No hay video embed

22 de Julio (2018) Web-DL NF 1080p Latino.mkv
Format: Matroska
Format version: Version 4 / Version 2
File size : 6.18 GiB
Duration: 2 h 24 min
Overall bit rate: 6 149 kb/s
Movie name: CinemaniaHDD.Net
Encoded date: UTC 2018-10-10 17:39:30
Writing application : mkvmerge v25.0.0 ('Prog Noir') 64-bit
Writing library : libebml v1.3.6 + libmatroska v1.4.9

Video
ID: 1
Format: AVC
Format/Info : Advanced Video Codec
Format profile: High@L4.1
Format settings : CABAC / 4 Ref Frames
Format settings, CABAC: Yes
Format settings, RefFrames: 4 frames
Codec ID: V_MPEG4/ISO/AVC
Duration: 2 h 24 min
Bit rate: 5 122 kb/s
Width : 1 920 pixels
Height: 1 036 pixels
Display aspect ratio: 1.85:1
Frame rate mode : Constant
Frame rate: 24.000 FPS
Color space : YUV
Chroma subsampling: 4:2:0
Bit depth : 8 bits
Scan type : Progressive
Bits/(Pixel*Frame): 0.107
Stream size : 5.15 GiB (83%)
Title : HD1080p [Web-DL NF]
Writing library : x264 core 157 r2932 303c484
Encoding settings : cabac=1 / ref=4 / deblock=1:-3:-3 / analyse=0x3:0x113 / me=hex / subme=8 / psy=1 / psy_rd=1.00:0.00 / mixed_ref=1 / me_range=16 / chroma_me=1 / trellis=2 / 8x8dct=1 / cqm=0 / deadzone=21,11 / fast_pskip=1 / chroma_qp_offset=-2 / threads=32 / lookahead_threads=5 / sliced_threads=0 / nr=0 / decimate=1 / interlaced=0 / bluray_compat=0 / constrained_intra=0 / bframes=3 / b_pyramid=2 / b_adapt=1 / b_bias=0 / direct=3 / weightb=1 / open_gop=0 / weightp=2 / keyint=250 / keyint_min=24 / scenecut=40 / intra_refresh=0 / rc_lookahead=50 / rc=crf / mbtree=1 / crf=17.0 / qcomp=0.60 / qpmin=0 / qpmax=69 / qpstep=4 / ip_ratio=1.40 / aq=3:0.80
Default : Yes
Forced: No

Audio #1
ID: 2
Format: AC-3
Format/Info : Audio Coding 3
Format settings, Endianness : Big
Codec ID: A_AC3
Duration: 2 h 24 min
Bit rate mode : Constant
Bit rate: 384 kb/s
Channel(s): 6 channels
Channel positions : Front: L C R, Side: L R, LFE
Sampling rate : 48.0 kHz
Frame rate: 31.250 FPS (1536 SPF)
Bit depth : 16 bits
Compression mode: Lossy
Stream size : 396 MiB (6%)
Title : AC3_5.1_NF_Esp
Language: Spanish
Service kind: Complete Main
Default : Yes
Forced: No

Audio #2
ID: 3
Format: E-AC-3
Format/Info : Enhanced Audio Coding 3
Format settings, Endianness : Big
Codec ID: A_EAC3
Duration: 2 h 24 min
Bit rate mode : Constant
Bit rate: 640 kb/s
Channel(s): 6 channels
Channel positions : Front: L C R, Side: L R, LFE
Sampling rate : 48.0 kHz
Frame rate: 187.500 FPS (256 SPF)
Compression mode: Lossy
Stream size : 659 MiB (10%)
Title : e-AC3_5.1_NF_Eng
Language: English
Service kind: Complete Main
Default : No
Forced: No

Text #1
ID: 4
Format: UTF-8
Codec ID: S_TEXT/UTF8
Codec ID/Info : UTF-8 Plain Text
Duration: 2 h 23 min
Bit rate: 1 b/s
Count of elements : 44
Stream size : 1.61 KiB (0%)
Title : Sub_Forzados
Language: Spanish
Default : Yes
Forced: Yes

Text #2
ID: 5
Format: UTF-8
Codec ID: S_TEXT/UTF8
Codec ID/Info : UTF-8 Plain Text
Duration: 2 h 23 min
Bit rate: 47 b/s
Count of elements : 1598
Stream size : 49.9 KiB (0%)
Title : Sub_Esp
Language: Spanish
Default : No
Forced: No

Text #3
ID: 6
Format: UTF-8
Codec ID: S_TEXT/UTF8
Codec ID/Info : UTF-8 Plain Text
Duration: 2 h 14 min
Bit rate: 47 b/s
Count of elements : 1540
Stream size : 46.6 KiB (0%)
Title : Sub_Eng
Language: English
Default : No
Forced: No

Download Links

CONTRASEÑA PARA DESCOMPRIMIR

APORTES NUEVOS

cinemaniahdd.com

APORTES VIEJOS

CinemaniaHD.org

COMPRA O RENUEVA TU PREMIUM DE UPLOADED DESDE EL SIGUIENTE LINK:

http://ul.to/ref/9821430

SI GUSTAS PUEDES SEGUIRNOS EN LAS REDES SOCIALES

Facebook

Twitter

Post Relacionados