4/20 Massacre (2018) AMZN Web-DL 1080p Latino

Descargar 4/20 Massacre (2018) AMZN Web-DL 1080p Latino; Mega, Google Drive. Cinco mujeres van de acampada al bosque para celebrar el cumpleaños de una de ellas, pero todo se complica cuando entran a un terreno donde se cultiva marihuana ilegalmente.
Audio Español latino AC3 2.0 Capturado – Ingles E-AC3 2.0 Amazon



Titulo Original 4/20 Massacre
Año 2018-04-03
Duracion 1h 25m
Director
Reparto , , , , , , , , ,
Productora
Genero
Titulo original 4/20 Massacre
Audio Se especifica abajo de la Sinopsis
Calidad: WEBDL Resolucion: 1920x1040p Formato: MKV
Encoder: NTG Peso: 6.91 GiB Duracion: 1h 25m
Subtitulos: No
  • No hay video embed

4-20 Massacre (2018) AMZN Web-DL Latino.mkv
Format: Matroska
Format version: Version 4 / Version 2
File size : 6.91 GiB
Duration: 1 h 24 min
Overall bit rate: 11.7 Mb/s
Movie name: CinemaniaHDD.Net
Encoded date: UTC 2018-10-21 23:07:47
Writing application : mkvmerge v25.0.0 ('Prog Noir') 64-bit
Writing library : libebml v1.3.6 + libmatroska v1.4.9

Video
ID: 1
Format: AVC
Format/Info : Advanced Video Codec
Format profile: High@L4
Format settings : CABAC / 4 Ref Frames
Format settings, CABAC: Yes
Format settings, RefFrames: 4 frames
Codec ID: V_MPEG4/ISO/AVC
Duration: 1 h 24 min
Bit rate: 11.2 Mb/s
Width : 1 920 pixels
Height: 1 040 pixels
Display aspect ratio: 1.85:1
Frame rate mode : Constant
Frame rate: 23.976 (24000/1001) FPS
Color space : YUV
Chroma subsampling: 4:2:0
Bit depth : 8 bits
Scan type : Progressive
Bits/(Pixel*Frame): 0.234
Stream size : 6.63 GiB (96%)
Title : HD1080p [AMZN]
Default : Yes
Forced: No
Color range : Limited
Color primaries : BT.709
Transfer characteristics: BT.709
Matrix coefficients : BT.709

Audio #1
ID: 2
Format: AC-3
Format/Info : Audio Coding 3
Format settings, Endianness : Big
Codec ID: A_AC3
Duration: 1 h 24 min
Bit rate mode : Constant
Bit rate: 256 kb/s
Channel(s): 2 channels
Channel positions : Front: L R
Sampling rate : 48.0 kHz
Frame rate: 31.250 FPS (1536 SPF)
Bit depth : 16 bits
Compression mode: Lossy
Stream size : 155 MiB (2%)
Title : AC3_2.0_Captura_Esp
Language: Spanish
Service kind: Complete Main
Default : Yes
Forced: Yes

Audio #2
ID: 3
Format: E-AC-3
Format/Info : Enhanced Audio Coding 3
Format settings, Endianness : Big
Codec ID: A_EAC3
Duration: 1 h 24 min
Bit rate mode : Constant
Bit rate: 224 kb/s
Channel(s): 2 channels
Channel positions : Front: L R
Sampling rate : 48.0 kHz
Frame rate: 187.500 FPS (256 SPF)
Compression mode: Lossy
Stream size : 136 MiB (2%)
Title : E-AC3_2.0_Web-DL_Eng
Language: English
Service kind: Complete Main
Default : No
Forced: No

Text
ID: 4
Format: UTF-8
Codec ID: S_TEXT/UTF8
Codec ID/Info : UTF-8 Plain Text
Duration: 1 h 24 min
Bit rate: 80 b/s
Count of elements : 1690
Stream size : 49.8 KiB (0%)
Title : Sub_Eng
Language: English
Default : No
Forced: No

Download Links

CONTRASEÑA PARA DESCOMPRIMIR

APORTES NUEVOS

cinemaniahdd.com

APORTES VIEJOS

CinemaniaHD.org

COMPRA O RENUEVA TU PREMIUM DE UPLOADED DESDE EL SIGUIENTE LINK:

http://ul.to/ref/9821430

SI GUSTAS PUEDES SEGUIRNOS EN LAS REDES SOCIALES

Facebook

Twitter

Post Relacionados