A ciegas (2018) NF 1080p Latino

Thriller posapocalíptico en el que una mujer y sus dos hijos, estos con los ojos vendados, navegan río abajo tras una sangrienta invasión alienígena de la Tierra intentando evitar a las criaturas extraterrestres. Cuando algo misterioso diezma la población mundial, solo se sabe una cosa: si lo ves, te suicidas. Malorie (Sandra Bullock) deberá huir junto a sus dos hijos por un caudaloso y traicionero río, rumbo al único sitio que parece ofrecer refugio. Pero para sobrevivir, deberán completar el peligroso viaje de dos días con los ojos vendados.



Titulo original Bird Box
Audio Español Latino AC3 5.1 Netflix - Ingles AC3 5.1 Netflix
Calidad: WEBDL Resolucion: 1920x1080 Formato: MKV
Encoder: SiGLA Peso: 4.85 GiB Duracion: 2h 03m
Subtitulos: Español Latino SRT
  • No hay video embed

Bird Box (2018) NF 1080p Latino.mkv
Format: Matroska
Format version: Version 4
File size : 4.85 GiB
Duration: 2 h 3 min
Overall bit rate mode : Variable
Overall bit rate: 5 612 kb/s
Movie name: CinemaniaHDD.net
Encoded date: UTC 2018-12-17 22:15:33
Writing application : mkvmerge v28.2.0 ('The Awakening') 64-bit
Writing library : libebml v1.3.6 + libmatroska v1.4.9

Video
ID: 1
Format: AVC
Format/Info : Advanced Video Codec
Format profile: Main@L4
Format settings : CABAC / 3 Ref Frames
Format settings, CABAC: Yes
Format settings, ReFrames : 3 frames
Codec ID: V_MPEG4/ISO/AVC
Duration: 2 h 3 min
Bit rate mode : Variable
Bit rate: 4 870 kb/s
Maximum bit rate: 7 305 kb/s
Width : 1 920 pixels
Height: 1 080 pixels
Display aspect ratio: 16:9
Frame rate mode : Constant
Frame rate: 24.000 FPS
Color space : YUV
Chroma subsampling: 4:2:0
Bit depth : 8 bits
Scan type : Progressive
Bits/(Pixel*Frame): 0.098
Stream size : 4.13 GiB (85%)
Writing library : x264 core 148 r2715 7e75228
Encoding settings : cabac=1 / ref=3 / deblock=1:0:0 / analyse=0x1:0x111 / me=umh / subme=10 / psy=1 / psy_rd=1.00:0.00 / mixed_ref=1 / me_range=24 / chroma_me=1 / trellis=2 / 8x8dct=0 / cqm=0 / deadzone=21,11 / fast_pskip=1 / chroma_qp_offset=-2 / threads=8 / lookahead_threads=1 / sliced_threads=0 / nr=0 / decimate=1 / interlaced=0 / bluray_compat=0 / stitchable=1 / constrained_intra=0 / bframes=2 / b_pyramid=0 / b_adapt=2 / b_bias=0 / direct=3 / weightb=1 / open_gop=0 / weightp=2 / keyint=48 / keyint_min=25 / scenecut=0 / intra_refresh=0 / rc_lookahead=48 / rc=2pass / mbtree=1 / bitrate=4870 / ratetol=1.0 / qcomp=0.50 / qpmin=6 / qpmax=51 / qpstep=4 / cplxblur=20.0 / qblur=0.5 / vbv_maxrate=7305 / vbv_bufsize=9740 / nal_hrd=vbr / filler=0 / ip_ratio=1.40 / aq=1:1.00
Default : Yes
Forced: No

Audio #1
ID: 2
Format: AC-3
Format/Info : Audio Coding 3
Commercial name : Dolby Digital
Codec ID: A_AC3
Duration: 2 h 3 min
Bit rate mode : Constant
Bit rate: 384 kb/s
Channel(s): 6 channels
Channel layout: L R C LFE Ls Rs
Sampling rate : 48.0 kHz
Frame rate: 31.250 FPS (1536 SPF)
Bit depth : 16 bits
Compression mode: Lossy
Stream size : 340 MiB (7%)
Language: Spanish
Service kind: Complete Main
Default : Yes
Forced: No

Audio #2
ID: 3
Format: E-AC-3 JOC
Format/Info : Enhanced AC-3 with Joint Object Coding
Commercial name : Dolby Digital Plus with Dolby Atmos
Codec ID: A_EAC3
Duration: 2 h 3 min
Bit rate mode : Constant
Bit rate: 448 kb/s
Channel(s): 6 channels
Channel layout: L R C LFE Ls Rs
Sampling rate : 48.0 kHz
Frame rate: 31.250 FPS (1536 SPF)
Compression mode: Lossy
Stream size : 397 MiB (8%)
Language: English
Service kind: Complete Main
Default : No
Forced: No
Complexity index: 16
Number of dynamic objects : 15
Bed channel count : 1 channel
Bed channel configuration : LFE

Text
ID: 4
Format: UTF-8
Codec ID: S_TEXT/UTF8
Codec ID/Info : UTF-8 Plain Text
Duration: 1 h 56 min
Bit rate: 50 b/s
Count of elements : 1442
Stream size : 43.4 KiB (0%)
Language: Spanish
Default : Yes
Forced: No

Download Links

CONTRASEÑA PARA DESCOMPRIMIR

APORTES NUEVOS

cinemaniahdd.com

APORTES VIEJOS

CinemaniaHD.org

COMPRA O RENUEVA TU PREMIUM DE UPLOADED DESDE EL SIGUIENTE LINK:

http://ul.to/ref/9821430

SI GUSTAS PUEDES SEGUIRNOS EN LAS REDES SOCIALES

Facebook

Twitter

Post Relacionados