A la deriva (2018) 1080p Latino

Descargar A la deriva (2018) 1080p Latino; Mega google Drive. Basada en una historia real, narra cómo la pareja formada por los jóvenes Tami Oldham y su novio Richard se hace a la mar en su velero, pero en medio del océano se ven sorprendidos por una de las mayores tormentas jamás registradas. Tras el paso del huracán, Richard sale herido, y Tami tendrá que ponerse al mando para intentar sobrevivir a la deriva con el velero roto, sin comida y sin agua.



Titulo Original Adrift
Año 2018-05-31
Duracion 1h 36m
Director
Reparto , , , , ,
Productora
Genero
Titulo original Adrift
Audio Español Latino AC3 5.1 DVD - Ingles AC3 5.1 BLURAY
Calidad: 1080p Resolucion: 1920x808p Formato: MKV
Encoder: Chesse92 Peso: 2.88 GiB Duracion: 1h 36m
Subtitulos: Español Latino SRT- FORZADOS SRT
  • No hay video embed

A La Deriva (2018) 1080p Latino.mkv
Format: Matroska
Format version: Version 4 / Version 2
File size : 2.88 GiB
Duration: 1 h 36 min
Overall bit rate: 4 267 kb/s
Movie name: CinemaniaHDD.Net
Encoded date: UTC 2018-10-18 01:55:28 / UTC 2018-10-17T22:22:17Z
Writing application : mkvmerge v25.0.0 ('Prog Noir') 64-bit
Writing library : libebml v1.3.6 + libmatroska v1.4.9 / Lavf57.7.2

Video
ID: 1
Format: AVC
Format/Info : Advanced Video Codec
Format profile: High@L4.1
Format settings : CABAC / 5 Ref Frames
Format settings, CABAC: Yes
Format settings, RefFrames: 5 frames
Codec ID: V_MPEG4/ISO/AVC
Duration: 1 h 36 min
Bit rate: 3 286 kb/s
Nominal bit rate: 3 500 kb/s
Width : 1 920 pixels
Height: 808 pixels
Display aspect ratio: 2.40:1
Frame rate mode : Constant
Frame rate: 23.976 (24000/1001) FPS
Color space : YUV
Chroma subsampling: 4:2:0
Bit depth : 8 bits
Scan type : Progressive
Bits/(Pixel*Frame): 0.088
Stream size : 2.22 GiB (77%)
Title : HD1080p [Bluray]
Writing library : x264 core 155 r2893 b00bcaf
Encoding settings : cabac=1 / ref=5 / deblock=1:0:0 / analyse=0x3:0x113 / me=hex / subme=8 / psy=1 / psy_rd=1.00:0.00 / mixed_ref=1 / me_range=16 / chroma_me=1 / trellis=2 / 8x8dct=1 / cqm=0 / deadzone=21,11 / fast_pskip=1 / chroma_qp_offset=-2 / threads=25 / lookahead_threads=4 / sliced_threads=0 / nr=0 / decimate=1 / interlaced=0 / bluray_compat=0 / constrained_intra=0 / bframes=3 / b_pyramid=2 / b_adapt=1 / b_bias=0 / direct=3 / weightb=1 / open_gop=0 / weightp=2 / keyint=240 / keyint_min=24 / scenecut=40 / intra_refresh=0 / rc_lookahead=50 / rc=abr / mbtree=1 / bitrate=3500 / ratetol=1.0 / qcomp=0.60 / qpmin=0 / qpmax=69 / qpstep=4 / vbv_maxrate=62500 / vbv_bufsize=78125 / nal_hrd=none / filler=0 / ip_ratio=1.40 / aq=1:1.00
Default : Yes
Forced: No
Color range : Limited
Color primaries : BT.709
Transfer characteristics: BT.709
Matrix coefficients : BT.709
Statistics Tags Issue : mkvmerge v25.0.0 ('Prog Noir') 64-bit 2018-10-18 01:55:28 / mkvmerge v25.0.0 ('Prog Noir') 64-bit 2018-10-18 01:55:28 / UTC 2018-10-17T22:22:17Z
FromStats_BitRate : 3368945
FromStats_Duration: 01:36:47.802000000
FromStats_FrameCount: 139248
FromStats_StreamSize: 2445771039

Audio #1
ID: 2
Format: AC-3
Format/Info : Audio Coding 3
Format settings, Endianness : Big
Codec ID: A_AC3
Duration: 1 h 36 min
Bit rate mode : Constant
Bit rate: 448 kb/s
Channel(s): 6 channels
Channel positions : Front: L C R, Side: L R, LFE
Sampling rate : 48.0 kHz
Frame rate: 31.250 FPS (1536 SPF)
Bit depth : 16 bits
Compression mode: Lossy
Delay relative to video : 43 ms
Stream size : 310 MiB (10%)
Title : AC3_5.1_DVD_Esp
Language: Spanish
Service kind: Complete Main
Default : Yes
Forced: No
Statistics Tags Issue : mkvmerge v25.0.0 ('Prog Noir') 64-bit 2018-10-18 01:55:28 / mkvmerge v25.0.0 ('Prog Noir') 64-bit 2018-10-18 01:55:28 / UTC 2018-10-17T22:22:17Z
FromStats_BitRate : 448000
FromStats_Duration: 01:36:44.608000000
FromStats_FrameCount: 181394
FromStats_StreamSize: 325058048

Audio #2
ID: 3
Format: AC-3
Format/Info : Audio Coding 3
Format settings, Endianness : Big
Codec ID: A_AC3
Duration: 1 h 36 min
Bit rate mode : Constant
Bit rate: 448 kb/s
Channel(s): 6 channels
Channel positions : Front: L C R, Side: L R, LFE
Sampling rate : 48.0 kHz
Frame rate: 31.250 FPS (1536 SPF)
Bit depth : 16 bits
Compression mode: Lossy
Stream size : 310 MiB (10%)
Title : AC3_5.1_Bluray_Eng
Language: English
Service kind: Complete Main
Default : No
Forced: No
Statistics Tags Issue : mkvmerge v25.0.0 ('Prog Noir') 64-bit 2018-10-18 01:55:28 / mkvmerge v25.0.0 ('Prog Noir') 64-bit 2018-10-18 01:55:28 / UTC 2018-10-17T22:22:17Z
FromStats_BitRate : 448000
FromStats_Duration: 01:36:47.808000000
FromStats_FrameCount: 181494
FromStats_StreamSize: 325237248

Text #1
ID: 4
Format: UTF-8
Codec ID: S_TEXT/UTF8
Codec ID/Info : UTF-8 Plain Text
Title : sub_Forzados
Language: Spanish
Default : Yes
Forced: Yes
Statistics Tags Issue : mkvmerge v25.0.0 ('Prog Noir') 64-bit 2018-10-18 01:55:28 / mkvmerge v25.0.0 ('Prog Noir') 64-bit 2018-10-18 01:55:28 / UTC 2018-10-17T22:22:17Z
FromStats_BitRate : 0
FromStats_Duration: 01:26:12.585000000
FromStats_FrameCount: 19
FromStats_StreamSize: 588

Text #2
ID: 5
Format: UTF-8
Codec ID: S_TEXT/UTF8
Codec ID/Info : UTF-8 Plain Text
Title : Sub_Esp
Language: Spanish
Default : No
Forced: No
Statistics Tags Issue : mkvmerge v25.0.0 ('Prog Noir') 64-bit 2018-10-18 01:55:28 / mkvmerge v25.0.0 ('Prog Noir') 64-bit 2018-10-18 01:55:28 / UTC 2018-10-17T22:22:17Z
FromStats_BitRate : 37
FromStats_Duration: 01:29:02.213000000
FromStats_FrameCount: 904
FromStats_StreamSize: 24970

Menu
00:00:00.000: :Chapter 1
00:05:18.944: :Chapter 2
00:08:04.401: :Chapter 3
00:14:01.424: :Chapter 4
00:19:38.094: :Chapter 5
00:24:46.735: :Chapter 6
00:29:42.698: :Chapter 7
00:34:45.709: :Chapter 8
00:37:21.114: :Chapter 9
00:43:30.191: :Chapter 10
00:49:43.564: :Chapter 11
00:52:40.574: :Chapter 12
00:58:12.614: :Chapter 13
01:06:31.196: :Chapter 14
01:11:19.817: :Chapter 15
01:14:07.193: :Chapter 16
01:18:06.974: :Chapter 17
01:24:15.551: :Chapter 18
01:27:22.446: :Chapter 19
01:31:34.948: :Chapter 20

Download Links

CONTRASEÑA PARA DESCOMPRIMIR

APORTES NUEVOS

cinemaniahdd.com

APORTES VIEJOS

CinemaniaHD.org

COMPRA O RENUEVA TU PREMIUM DE UPLOADED DESDE EL SIGUIENTE LINK:

http://ul.to/ref/9821430

SI GUSTAS PUEDES SEGUIRNOS EN LAS REDES SOCIALES

Facebook

Twitter

Post Relacionados