A River Runs Through It (1992) Full 1080p Latino

Norman (Craig Sheffer) y Paul Mclean (Brad Pitt), hijos de un pastor protestante, recibieron una rígida y dura educación que los ha marcado profundamente. Norman es profesor y está enamorado. Paul, por su parte, sigue en la casa paterna y lleva una vida autodestructiva. a pesar de todo, siempre habrá algo que los mantendrá unidos: el río salvaje que atraviesa Montana, donde aprendieron a pescar.



Titulo Original A River Runs Through It
Año 1992-10-09
Duracion 2h 3m
Director
Reparto , , , , , , , , , , ,
Productora
Genero
Titulo original A River Runs Through It
Audio Español Latino AC3 5.1 BLURAY - Ingles AC3 5.1 BLURAY
Calidad: Full 1080p Resolucion: 1920x1080p Formato: MKV
Encoder: Dracarys Peso: 11.8 GiB Duracion: 2h 3m
Subtitulos: Español Latino PGS - Ingles PGS
  • No hay video embed

Format                                   : Matroska
Format version                           : Version 4 / Version 2
File size                                : 11.8 GiB
Duration                                 : 2 h 3 min
Overall bit rate                         : 13.6 Mb/s
Movie name                               : CinemaniaHDD.net
Encoded date                             : UTC 2018-10-07 18:35:37 / UTC 2018-09-29T16:18:20Z
Writing application                      : mkvmerge v15.0.0 ('Duel with the Devil') 64-bit
Writing library                          : libebml v1.3.5 + libmatroska v1.4.5 / Lavf57.7.2

Video
ID                                       : 1
Format                                   : AVC
Format/Info                              : Advanced Video Codec
Format profile                           : High@L4.1
Format settings                          : CABAC / 4 Ref Frames
Format settings, CABAC                   : Yes
Format settings, RefFrames               : 4 frames
Codec ID                                 : V_MPEG4/ISO/AVC
Duration                                 : 2 h 3 min
Bit rate                                 : 12.5 Mb/s
Width                                    : 1 920 pixels
Height                                   : 1 080 pixels
Display aspect ratio                     : 16:9
Frame rate mode                          : Constant
Frame rate                               : 23.976 (24000/1001) FPS
Color space                              : YUV
Chroma subsampling                       : 4:2:0
Bit depth                                : 8 bits
Scan type                                : Progressive
Bits/(Pixel*Frame)                       : 0.251
Stream size                              : 10.8 GiB (91%)
Writing library                          : x264 core 148 r2708 86b7198
Encoding settings                        : cabac=1 / ref=4 / deblock=1:0:0 / analyse=0x3:0x133 / me=esa / subme=10 / psy=1 / psy_rd=1.00:0.00 / mixed_ref=1 / me_range=24 / chroma_me=1 / trellis=2 / 8x8dct=1 / cqm=0 / deadzone=21,11 / fast_pskip=1 / chroma_qp_offset=-2 / threads=34 / lookahead_threads=5 / sliced_threads=0 / nr=0 / decimate=1 / interlaced=0 / bluray_compat=0 / constrained_intra=0 / bframes=8 / b_pyramid=2 / b_adapt=2 / b_bias=0 / direct=3 / weightb=1 / open_gop=0 / weightp=2 / keyint=240 / keyint_min=24 / scenecut=40 / intra_refresh=0 / rc_lookahead=60 / rc=crf / mbtree=1 / crf=20.0 / qcomp=0.60 / qpmin=0 / qpmax=69 / qpstep=4 / vbv_maxrate=62500 / vbv_bufsize=78125 / crf_max=0.0 / nal_hrd=none / filler=0 / ip_ratio=1.40 / aq=1:1.00
Language                                 : English
Default                                  : Yes
Forced                                   : No
Color range                              : Limited
Color primaries                          : BT.709
Transfer characteristics                 : BT.709
Matrix coefficients                      : BT.709
Statistics Tags Issue                    : mkvmerge v15.0.0 ('Duel with the Devil') 64-bit 2018-10-07 18:35:37 / mkvmerge v15.0.0 ('Duel with the Devil') 64-bit 2018-10-07 18:35:37 / UTC 2018-09-29T16:18:20Z
FromStats_BitRate                        : 12734647
FromStats_Duration                       : 02:03:36.368000000
FromStats_FrameCount                     : 177815
FromStats_StreamSize                     : 11805603973

Audio #1
ID                                       : 2
Format                                   : AC-3
Format/Info                              : Audio Coding 3
Format settings, Endianness              : Big
Codec ID                                 : A_AC3
Duration                                 : 2 h 3 min
Bit rate mode                            : Constant
Bit rate                                 : 448 kb/s
Channel(s)                               : 6 channels
Channel positions                        : Front: L C R, Side: L R, LFE
Sampling rate                            : 48.0 kHz
Frame rate                               : 31.250 FPS (1536 SPF)
Bit depth                                : 16 bits
Compression mode                         : Lossy
Stream size                              : 396 MiB (3%)
Language                                 : Spanish
Service kind                             : Complete Main
Default                                  : Yes
Forced                                   : No
Statistics Tags Issue                    : mkvmerge v15.0.0 ('Duel with the Devil') 64-bit 2018-10-07 18:35:37 / mkvmerge v15.0.0 ('Duel with the Devil') 64-bit 2018-10-07 18:35:37 / UTC 2018-09-29T16:18:20Z
FromStats_BitRate                        : 448000
FromStats_Duration                       : 02:03:36.416000000
FromStats_FrameCount                     : 231763
FromStats_StreamSize                     : 415319296

Audio #2
ID                                       : 3
Format                                   : AC-3
Format/Info                              : Audio Coding 3
Format settings, Endianness              : Big
Codec ID                                 : A_AC3
Duration                                 : 2 h 3 min
Bit rate mode                            : Constant
Bit rate                                 : 448 kb/s
Channel(s)                               : 6 channels
Channel positions                        : Front: L C R, Side: L R, LFE
Sampling rate                            : 48.0 kHz
Frame rate                               : 31.250 FPS (1536 SPF)
Bit depth                                : 16 bits
Compression mode                         : Lossy
Stream size                              : 396 MiB (3%)
Language                                 : English
Service kind                             : Complete Main
Default                                  : No
Forced                                   : No
Statistics Tags Issue                    : mkvmerge v15.0.0 ('Duel with the Devil') 64-bit 2018-10-07 18:35:37 / mkvmerge v15.0.0 ('Duel with the Devil') 64-bit 2018-10-07 18:35:37 / UTC 2018-09-29T16:18:20Z
FromStats_BitRate                        : 448000
FromStats_Duration                       : 02:03:36.416000000
FromStats_FrameCount                     : 231763
FromStats_StreamSize                     : 415319296

Text #1
ID                                       : 4
Format                                   : PGS
Muxing mode                              : zlib
Codec ID                                 : S_HDMV/PGS
Codec ID/Info                            : Picture based subtitle format used on BDs/HD-DVDs
Language                                 : English
Default                                  : No
Forced                                   : No
Statistics Tags Issue                    : mkvmerge v15.0.0 ('Duel with the Devil') 64-bit 2018-10-07 18:35:37 / mkvmerge v15.0.0 ('Duel with the Devil') 64-bit 2018-10-07 18:35:37 / UTC 2018-09-29T16:18:20Z
FromStats_BitRate                        : 28591
FromStats_Duration                       : 01:58:45.285000000
FromStats_FrameCount                     : 2406
FromStats_StreamSize                     : 25465413

Text #2
ID                                       : 5
Format                                   : PGS
Muxing mode                              : zlib
Codec ID                                 : S_HDMV/PGS
Codec ID/Info                            : Picture based subtitle format used on BDs/HD-DVDs
Language                                 : Spanish
Default                                  : No
Forced                                   : No
Statistics Tags Issue                    : mkvmerge v15.0.0 ('Duel with the Devil') 64-bit 2018-10-07 18:35:37 / mkvmerge v15.0.0 ('Duel with the Devil') 64-bit 2018-10-07 18:35:37 / UTC 2018-09-29T16:18:20Z
FromStats_BitRate                        : 21155
FromStats_Duration                       : 01:58:46.619000000
FromStats_FrameCount                     : 1907
FromStats_StreamSize                     : 18846312

Menu
00:00:00.000                             : :Chapter 1
00:05:59.609                             : :Chapter 2
00:10:40.265                             : :Chapter 3
00:16:45.129                             : :Chapter 4
00:25:42.458                             : :Chapter 5
00:33:54.908                             : :Chapter 6
00:41:57.932                             : :Chapter 7
00:48:46.424                             : :Chapter 8
00:55:25.113                             : :Chapter 9
01:03:21.006                             : :Chapter 10
01:09:06.267                             : :Chapter 11
01:17:20.970                             : :Chapter 12
01:27:43.467                             : :Chapter 13
01:35:55.917                             : :Chapter 14
01:48:00.391                             : :Chapter 15
01:52:32.788                             : :Chapter 16

 

Download Links

CONTRASEÑA PARA DESCOMPRIMIR

APORTES NUEVOS

cinemaniahdd.com

APORTES VIEJOS

CinemaniaHD.org

COMPRA O RENUEVA TU PREMIUM DE UPLOADED DESDE EL SIGUIENTE LINK:

http://ul.to/ref/9821430

SI GUSTAS PUEDES SEGUIRNOS EN LAS REDES SOCIALES

Facebook

Twitter

Post Relacionados