A-X-L (2018) Full 1080p Latino

Descargar A-X-L (2018) Full 1080p Latino Mega, Google Drive, Torrent. Miles (Alex Neustaedter) es un joven motero con poca suerte que casualmente se tropieza con A.X.L., un perro robótico creado con tecnología militar con el que forma un vínculo emocional. Con la ayuda de Sara (Becky G), una chica de la que se ha enamorado, Miles hace todo lo posible por defender a su nueva mascota, que pese a su metálico aspecto demuestra tener un corazón digno del mejor amigo del hombre.



Titulo original A-X-L
Audio Español Latino DTS 5.1 BLURAY - Ingles DTS 5.1 BLURAY
Calidad: Full 1080p Resolucion: 1920x1080p Formato: MKV
Encoder: CinefiloCool Peso: 8.74 GiB Duracion: 1h 35m
Subtitulos: Español Latino PGS - Ingles PGS
  • No hay video embed

A.X.L. (2018) Full 1080p Latino.mkv
Format: Matroska
Format version: Version 4
File size : 8.74 GiB
Duration: 1 h 38 min
Overall bit rate mode : Variable
Overall bit rate: 12.7 Mb/s
Movie name: CinemaniaHDD.Net
Encoded date: UTC 2018-12-29 19:52:16 / UTC 2018-12-29T10:17:21Z
Writing application : mkvmerge v28.2.0 ('The Awakening') 64-bit
Writing library : libebml v1.3.6 + libmatroska v1.4.9 / Lavf57.7.2

Video
ID: 1
Format: AVC
Format/Info : Advanced Video Codec
Format profile: High@L4.1
Format settings : CABAC / 4 Ref Frames
Format settings, CABAC: Yes
Format settings, ReFrames : 4 frames
Codec ID: V_MPEG4/ISO/AVC
Duration: 1 h 38 min
Bit rate: 4 515 kb/s
Width : 1 920 pixels
Height: 1 080 pixels
Display aspect ratio: 16:9
Frame rate mode : Constant
Frame rate: 23.976 (24000/1001) FPS
Color space : YUV
Chroma subsampling: 4:2:0
Bit depth : 8 bits
Scan type : Progressive
Bits/(Pixel*Frame): 0.091
Stream size : 3.11 GiB (36%)
Title : Full HD1080p [Bluray]
Writing library : x264 core 155 r2901 7d0ff22
Encoding settings : cabac=1 / ref=4 / deblock=1:0:0 / analyse=0x3:0x133 / me=esa / subme=10 / psy=1 / psy_rd=1.00:0.00 / mixed_ref=1 / me_range=24 / chroma_me=1 / trellis=2 / 8x8dct=1 / cqm=0 / deadzone=21,11 / fast_pskip=1 / chroma_qp_offset=-2 / threads=34 / lookahead_threads=5 / sliced_threads=0 / nr=0 / decimate=1 / interlaced=0 / bluray_compat=0 / constrained_intra=0 / bframes=8 / b_pyramid=2 / b_adapt=2 / b_bias=0 / direct=3 / weightb=1 / open_gop=0 / weightp=2 / keyint=240 / keyint_min=24 / scenecut=40 / intra_refresh=0 / rc_lookahead=60 / rc=crf / mbtree=1 / crf=20.0 / qcomp=0.60 / qpmin=0 / qpmax=69 / qpstep=4 / vbv_maxrate=62500 / vbv_bufsize=78125 / crf_max=0.0 / nal_hrd=none / filler=0 / ip_ratio=1.40 / aq=1:1.00
Default : Yes
Forced: No
Color range : Limited
Color primaries : BT.709
Transfer characteristics: BT.709
Matrix coefficients : BT.709

Audio #1
ID: 2
Format: DTS XLL
Format/Info : Digital Theater Systems
Commercial name : DTS-HD Master Audio
Codec ID: A_DTS
Duration: 1 h 38 min
Bit rate mode : Variable
Bit rate: 4 046 kb/s
Channel(s): 6 channels
Channel layout: C L R Ls Rs LFE
Sampling rate : 48.0 kHz
Frame rate: 93.750 FPS (512 SPF)
Bit depth : 24 bits
Compression mode: Lossless
Stream size : 2.79 GiB (32%)
Title : DTS-MA_5.1_Bluray_Esp
Language: Spanish
Default : Yes
Forced: Yes

Audio #2
ID: 3
Format: DTS XLL
Format/Info : Digital Theater Systems
Commercial name : DTS-HD Master Audio
Codec ID: A_DTS
Duration: 1 h 38 min
Bit rate mode : Variable
Bit rate: 4 087 kb/s
Channel(s): 6 channels
Channel layout: C L R Ls Rs LFE
Sampling rate : 48.0 kHz
Frame rate: 93.750 FPS (512 SPF)
Bit depth : 24 bits
Compression mode: Lossless
Stream size : 2.82 GiB (32%)
Title : DTS-MA_5.1_Bluray_Eng
Language: English
Default : No
Forced: No

Text #1
ID: 4
Format: PGS
Muxing mode : zlib
Codec ID: S_HDMV/PGS
Codec ID/Info : Picture based subtitle format used on BDs/HD-DVDs
Duration: 1 h 28 min
Bit rate: 34.5 kb/s
Count of elements : 2116
Stream size : 21.8 MiB (0%)
Title : Sub_Esp [PGS]
Language: Spanish
Default : Yes
Forced: No

Text #2
ID: 5
Format: PGS
Muxing mode : zlib
Codec ID: S_HDMV/PGS
Codec ID/Info : Picture based subtitle format used on BDs/HD-DVDs
Duration: 1 h 28 min
Bit rate: 38.4 kb/s
Count of elements : 2420
Stream size : 24.3 MiB (0%)
Title : Sub_Eng [PGS]
Language: English
Default : No
Forced: No

Menu
00:00:00.000: :Chapter 1
00:05:03.887: :Chapter 2
00:10:06.064: :Chapter 3
00:16:35.495: :Chapter 4
00:19:37.927: :Chapter 5
00:23:11.849: :Chapter 6
00:30:32.289: :Chapter 7
00:36:25.350: :Chapter 8
00:44:47.768: :Chapter 9
00:49:35.264: :Chapter 10
00:56:14.872: :Chapter 11
01:01:15.422: :Chapter 12
01:09:45.223: :Chapter 13
01:14:41.769: :Chapter 14
01:18:30.539: :Chapter 15
01:25:27.164: :Chapter 16

Download Links

CONTRASEÑA PARA DESCOMPRIMIR

APORTES NUEVOS

cinemaniahdd.com

APORTES VIEJOS

CinemaniaHD.org

COMPRA O RENUEVA TU PREMIUM DE UPLOADED DESDE EL SIGUIENTE LINK:

http://ul.to/ref/9821430

SI GUSTAS PUEDES SEGUIRNOS EN LAS REDES SOCIALES

Facebook

Twitter

Post Relacionados