A-X-L (2018) NF 1080p Latino

Miles (Alex Neustaedter) es un joven motero con poca suerte que casualmente se tropieza con A.X.L., un perro robótico creado con tecnología militar con el que forma un vínculo emocional. Con la ayuda de Sara (Becky G), una chica de la que se ha enamorado, Miles hace todo lo posible por defender a su nueva mascota, que pese a su metálico aspecto demuestra tener un corazón digno del mejor amigo del hombre.



Titulo original A-X-L
Audio Español Latino AC3 5.1 DVD - Ingles AC3 5.1 iTunes
Calidad: WEBDL Resolucion: 1920x1080 Formato: MKV
Encoder: CMRG Peso: 5.05 GiB Duracion: 1h 35m
Subtitulos: Español Latino SRT
  • No hay video embed

A-X-L (2018) NF 1080p Latino.mkv
Format: Matroska
Format version: Version 4
File size : 5.05 GiB
Duration: 1 h 38 min
Overall bit rate mode : Variable
Overall bit rate: 7 306 kb/s
Movie name: CinemaniaHDD.net
Encoded date: UTC 2018-12-21 00:40:47
Writing application : mkvmerge v28.2.0 ('The Awakening') 64-bit
Writing library : libebml v1.3.6 + libmatroska v1.4.9

Video
ID: 1
Format: AVC
Format/Info : Advanced Video Codec
Format profile: Main@L4
Format settings : CABAC / 3 Ref Frames
Format settings, CABAC: Yes
Format settings, ReFrames : 3 frames
Codec ID: V_MPEG4/ISO/AVC
Duration: 1 h 38 min
Bit rate mode : Variable
Bit rate: 6 490 kb/s
Maximum bit rate: 9 735 kb/s
Width : 1 920 pixels
Height: 1 080 pixels
Display aspect ratio: 16:9
Frame rate mode : Constant
Frame rate: 23.976 (24000/1001) FPS
Color space : YUV
Chroma subsampling: 4:2:0
Bit depth : 8 bits
Scan type : Progressive
Bits/(Pixel*Frame): 0.131
Stream size : 4.47 GiB (89%)
Writing library : x264 core 148 r2715 7e75228
Encoding settings : cabac=1 / ref=3 / deblock=1:0:0 / analyse=0x1:0x111 / me=umh / subme=10 / psy=1 / psy_rd=1.00:0.00 / mixed_ref=1 / me_range=24 / chroma_me=1 / trellis=2 / 8x8dct=0 / cqm=0 / deadzone=21,11 / fast_pskip=1 / chroma_qp_offset=-2 / threads=6 / lookahead_threads=1 / sliced_threads=0 / nr=0 / decimate=1 / interlaced=0 / bluray_compat=0 / stitchable=1 / constrained_intra=0 / bframes=2 / b_pyramid=0 / b_adapt=2 / b_bias=0 / direct=3 / weightb=1 / open_gop=0 / weightp=2 / keyint=48 / keyint_min=25 / scenecut=0 / intra_refresh=0 / rc_lookahead=48 / rc=2pass / mbtree=1 / bitrate=6490 / ratetol=1.0 / qcomp=0.50 / qpmin=6 / qpmax=51 / qpstep=4 / cplxblur=20.0 / qblur=0.5 / vbv_maxrate=9735 / vbv_bufsize=12980 / nal_hrd=vbr / filler=0 / ip_ratio=1.40 / aq=1:1.00
Default : Yes
Forced: No

Audio #1
ID: 2
Format: AC-3
Format/Info : Audio Coding 3
Commercial name : Dolby Digital
Codec ID: A_AC3
Duration: 1 h 38 min
Bit rate mode : Constant
Bit rate: 448 kb/s
Channel(s): 6 channels
Channel layout: L R C LFE Ls Rs
Sampling rate : 48.0 kHz
Frame rate: 31.250 FPS (1536 SPF)
Bit depth : 16 bits
Compression mode: Lossy
Delay relative to video : 7 s 200 ms
Stream size : 316 MiB (6%)
Language: Spanish
Service kind: Complete Main
Default : Yes
Forced: No

Audio #2
ID: 3
Format: AC-3
Format/Info : Audio Coding 3
Commercial name : Dolby Digital
Codec ID: A_AC3
Duration: 1 h 38 min
Bit rate mode : Constant
Bit rate: 384 kb/s
Channel(s): 6 channels
Channel layout: L R C LFE Ls Rs
Sampling rate : 48.0 kHz
Frame rate: 31.250 FPS (1536 SPF)
Bit depth : 16 bits
Compression mode: Lossy
Stream size : 272 MiB (5%)
Language: English
Service kind: Complete Main
Default : No
Forced: No

Text
ID: 4
Format: UTF-8
Codec ID: S_TEXT/UTF8
Codec ID/Info : UTF-8 Plain Text
Duration: 1 h 29 min
Bit rate: 57 b/s
Count of elements : 1130
Stream size : 37.8 KiB (0%)
Language: Spanish
Default : Yes
Forced: No

Download Links

CONTRASEÑA PARA DESCOMPRIMIR

APORTES NUEVOS

cinemaniahdd.com

APORTES VIEJOS

CinemaniaHD.org

COMPRA O RENUEVA TU PREMIUM DE UPLOADED DESDE EL SIGUIENTE LINK:

http://ul.to/ref/9821430

SI GUSTAS PUEDES SEGUIRNOS EN LAS REDES SOCIALES

Facebook

Twitter

Post Relacionados