Actividad Paranormal: Dimension Fantasma (2015) 1080p FULL HD Dual Latino

La familia Fleege acaba de mudarse de casa. Entre las cosas que dejaron los anteriores inquilinos, encuentran una cámara de vídeo y unos viejos vídeos. El contenido de las cintas muestran imágenes extrañas, de dos niñas que habitaban la casa antiguamente: Kristi y Katie .



Titulo Original Paranormal Activity: The Ghost Dimension
Año 2015
Duracion 88 Min
Director
Reparto Chris J. Murray, Brit Shaw, Ivy George, Dan Gill
Productora Chris J. Murray, Brit Shaw, Ivy George, Dan Gill
Genero
Titulo original Paranormal Activity: The Ghost Dimension (2015) 1080p FULL HD Dual Latino
Audio Latino (AC3 5.1 BD)-Ingles (DTS 5.1 BD)
Calidad: FULL HD 1080p Resolucion: 1920x1080p Formato: MKV
Encoder: ADDKiQ Peso: 12 GB Duracion: 1:37:00
Subtitulos: Español Latino [PGS] - Ingles [PGS]
  • No hay video embed

General
Unique ID : 223137854817907191819181475734461149760 (0xA7DEC9A2406D074CB06A259F0134F240)
Complete name : P:\Video\Video\Paranormal.Activity.The.Ghost\PARANORMAL_ACTIVITY__THE_GHOST_DIMENSION.cinemaniahdd.mkv
Format : Matroska
Format version : Version 2
File size : 12.7 GiB
Duration : 1h 37mn
Overall bit rate : 18.7 Mbps
Movie name : PARANORMAL_ACTIVITY__THE_GHOST_DIMENSION.Title2
Encoded date : UTC 2016-01-31 23:20:34
Writing application : DVDFab 9.2.2.4
Writing library : libebml v0.7.8 + libmatroska v0.8.1

Video
ID : 1
Format : AVC
Format/Info : Advanced Video Codec
Format profile : High@L4.1
Format settings, CABAC : Yes
Format settings, ReFrames : 2 frames
Codec ID : V_MPEG4/ISO/AVC
Duration : 1h 37mn
Bit rate : 16.2 Mbps
Width : 1 920 pixels
Height : 1 080 pixels
Display aspect ratio : 16:9
Frame rate mode : Constant
Frame rate : 23.976 (24000/1001) fps
Color space : YUV
Chroma subsampling : 4:2:0
Bit depth : 8 bits
Scan type : Progressive
Bits/(Pixel*Frame) : 0.326
Stream size : 11.0 GiB (87%)
Writing library : x264 core 142
Encoding settings : cabac=1 / ref=1 / deblock=1:-1:-1 / analyse=0x3:0 / me=hex / subme=5 / psy=0 / mixed_ref=0 / me_range=16 / chroma_me=1 / trellis=0 / 8x8dct=1 / cqm=0 / deadzone=21,11 / fast_pskip=1 / chroma_qp_offset=0 / threads=24 / lookahead_threads=6 / sliced_threads=0 / nr=0 / decimate=1 / interlaced=0 / bluray_compat=0 / constrained_intra=0 / bframes=2 / b_pyramid=0 / b_adapt=1 / b_bias=0 / direct=1 / weightb=1 / open_gop=0 / weightp=0 / keyint=24 / keyint_min=13 / scenecut=40 / intra_refresh=0 / rc=crf / mbtree=0 / crf=20.0 / qcomp=0.60 / qpmin=0 / qpmax=69 / qpstep=4 / ip_ratio=1.40 / pb_ratio=1.30 / aq=1:1.00
Default : Yes
Forced : No
Color range : Limited
Color primaries : BT.709
Transfer characteristics : BT.709
Matrix coefficients : BT.709

Audio #1
ID : 2
Format : AC-3
Format/Info : Audio Coding 3
Mode extension : CM (complete main)
Format settings, Endianness : Big
Codec ID : A_AC3
Duration : 1h 37mn
Bit rate mode : Constant
Bit rate : 640 Kbps
Channel(s) : 6 channels
Channel positions : Front: L C R, Side: L R, LFE
Sampling rate : 48.0 KHz
Frame rate : 31.250 fps (1536 spf)
Compression mode : Lossy
Stream size : 446 MiB (3%)
Language : Spanish
Default : Yes
Forced : No

Audio #2
ID : 3
Format : DTS
Format/Info : Digital Theater Systems
Mode : 16
Format settings, Endianness : Big
Codec ID : A_DTS
Duration : 1h 37mn
Bit rate mode : Constant
Bit rate : 1 509 Kbps
Channel(s) : 6 channels
Channel positions : Front: L C R, Side: L R, LFE
Sampling rate : 48.0 KHz
Frame rate : 93.750 fps (512 spf)
Bit depth : 24 bits
Compression mode : Lossy
Stream size : 1.03 GiB (8%)
Language : English
Default : No
Forced : No

Text #1
ID : 4
Format : PGS
Codec ID : S_HDMV/PGS
Codec ID/Info : Picture based subtitle format used on BDs/HD-DVDs
Language : English
Default : No
Forced : No

Text #2
ID : 5
Format : PGS
Codec ID : S_HDMV/PGS
Codec ID/Info : Picture based subtitle format used on BDs/HD-DVDs
Language : Spanish
Default : No
Forced : No

Text #3
ID : 6
Format : PGS
Codec ID : S_HDMV/PGS
Codec ID/Info : Picture based subtitle format used on BDs/HD-DVDs
Language : English
Default : No
Forced : No

Text #4
ID : 7
Format : PGS
Codec ID : S_HDMV/PGS
Codec ID/Info : Picture based subtitle format used on BDs/HD-DVDs
Language : Spanish
Default : No
Forced : No

Menu
00:00:00.000 : en:(01)00:00:00:000
00:01:56.074 : en:(02)00:01:56:074
00:09:46.961 : en:(03)00:09:46:961
00:17:56.825 : en:(04)00:17:56:825
00:24:35.140 : en:(05)00:24:35:140
00:33:20.998 : en:(06)00:33:20:998
00:40:53.742 : en:(07)00:40:53:742
00:47:12.371 : en:(08)00:47:12:371
00:55:29.868 : en:(09)00:55:29:868
01:02:45.970 : en:(10)01:02:45:970
01:13:42.960 : en:(11)01:13:42:960
01:20:44.839 : en:(12)01:20:44:839
01:31:58.638 : en:(13)01:31:58:638
01:37:22.461 : en:(14)01:37:22:461

Download Links

CONTRASEÑA PARA DESCOMPRIMIR

APORTES NUEVOS

cinemaniahdd.com

APORTES VIEJOS

CinemaniaHD.org

COMPRA O RENUEVA TU PREMIUM DE UPLOADED DESDE EL SIGUIENTE LINK:

http://ul.to/ref/9821430

SI GUSTAS PUEDES SEGUIRNOS EN LAS REDES SOCIALES

Facebook

Twitter

Post Relacionados