Air Srtike (2018) HD 1080p Español

Descargar Air Srtike (2018) HD 1080p Español, Mega, Google Drive, Torrent. Un coronel norteamericano (Bruce Willis) entrena a pilotos chinos para que combatan contra el ejército japonés. El temperamento de algunos hace que su trabajo sea más complicado de lo que había previsto cuando le asignaron la misión, pero no por ello pierde la confianza en los jóvenes soldados que le han sido asignados. Mientras tanto, un pequeño grupo de espías y de refugiados transportan un descodificador a través de zonas rurales devastadas con la esperanza de que sea el artilugio definitivo para que la contienda llegue a su fin.

¡Ojo!
Audio Español Castellano AC3 5.1 DVD



Titulo Original Air Strike
Año 2018-10-26
Duracion 1h 36m
Director
Reparto , , , , , , , ,
Productora
Genero
Titulo original Air Strike
Audio Español Castellano AC3 2.0 DVD- Ingles AC3 5.1 BLURAY
Calidad: 1080p Resolucion: 1920x806p Formato: MKV
Encoder: CinemaniaHD Peso: 2.75 GiB Duracion: 1h 36m
Subtitulos: Español Latino SRT
  • No hay video embed

Air Strike (2018) HD 1080p Español.mkv
Format: Matroska
Format version: Version 4
File size : 2.75 GiB
Duration: 1 h 37 min
Overall bit rate: 4 050 kb/s
Movie name: CinemaniaHDD.net
Encoded date: UTC 2018-12-20 00:19:19 / UTC 2018-12-19T07:22:52Z
Writing application : mkvmerge v28.2.0 ('The Awakening') 64-bit
Writing library : libebml v1.3.6 + libmatroska v1.4.9 / Lavf57.7.2

Video
ID: 1
Format: AVC
Format/Info : Advanced Video Codec
Format profile: High@L4.1
Format settings : CABAC / 5 Ref Frames
Format settings, CABAC: Yes
Format settings, ReFrames : 5 frames
Codec ID: V_MPEG4/ISO/AVC
Duration: 1 h 37 min
Bit rate: 3 500 kb/s
Width : 1 920 pixels
Height: 806 pixels
Display aspect ratio: 2.40:1
Frame rate mode : Constant
Frame rate: 23.976 (24000/1001) FPS
Color space : YUV
Chroma subsampling: 4:2:0
Bit depth : 8 bits
Scan type : Progressive
Bits/(Pixel*Frame): 0.094
Stream size : 2.27 GiB (83%)
Writing library : x264 core 155 r2901 7d0ff22
Encoding settings : cabac=1 / ref=5 / deblock=1:0:0 / analyse=0x3:0x113 / me=hex / subme=8 / psy=1 / psy_rd=1.00:0.00 / mixed_ref=1 / me_range=16 / chroma_me=1 / trellis=2 / 8x8dct=1 / cqm=0 / deadzone=21,11 / fast_pskip=1 / chroma_qp_offset=-2 / threads=25 / lookahead_threads=4 / sliced_threads=0 / nr=0 / decimate=1 / interlaced=0 / bluray_compat=0 / constrained_intra=0 / bframes=3 / b_pyramid=2 / b_adapt=1 / b_bias=0 / direct=3 / weightb=1 / open_gop=0 / weightp=2 / keyint=240 / keyint_min=24 / scenecut=40 / intra_refresh=0 / rc_lookahead=50 / rc=abr / mbtree=1 / bitrate=3500 / ratetol=1.0 / qcomp=0.60 / qpmin=0 / qpmax=69 / qpstep=4 / vbv_maxrate=62500 / vbv_bufsize=78125 / nal_hrd=none / filler=0 / ip_ratio=1.40 / aq=1:1.00
Default : Yes
Forced: No
Color range : Limited
Color primaries : BT.709
Transfer characteristics: BT.709
Matrix coefficients : BT.709

Audio #1
ID: 2
Format: AC-3
Format/Info : Audio Coding 3
Commercial name : Dolby Digital
Codec ID: A_AC3
Duration: 1 h 37 min
Bit rate mode : Constant
Bit rate: 256 kb/s
Channel(s): 2 channels
Channel layout: L R
Sampling rate : 48.0 kHz
Frame rate: 31.250 FPS (1536 SPF)
Bit depth : 16 bits
Compression mode: Lossy
Delay relative to video : -5 ms
Stream size : 178 MiB (6%)
Language: Spanish
Service kind: Complete Main
Default : Yes
Forced: No

Audio #2
ID: 3
Format: AC-3
Format/Info : Audio Coding 3
Commercial name : Dolby Digital
Codec ID: A_AC3
Duration: 1 h 37 min
Bit rate mode : Constant
Bit rate: 448 kb/s
Channel(s): 6 channels
Channel layout: L R C LFE Ls Rs
Sampling rate : 48.0 kHz
Frame rate: 31.250 FPS (1536 SPF)
Bit depth : 16 bits
Compression mode: Lossy
Stream size : 311 MiB (11%)
Title : Surround
Language: English
Service kind: Complete Main
Default : No
Forced: No

Text
ID: 4
Format: UTF-8
Codec ID: S_TEXT/UTF8
Codec ID/Info : UTF-8 Plain Text
Duration: 1 h 27 min
Bit rate: 44 b/s
Count of elements : 911
Stream size : 28.8 KiB (0%)
Default : Yes
Forced: No

Menu
00:00:00.000: :00:00:00.000
00:06:14.583: :00:06:14.541
00:15:26.300: :00:15:26.259
00:23:19.064: :00:23:19.064
00:30:58.690: :00:30:58.690
00:39:48.761: :00:39:48.595
00:47:51.369: :00:47:51.368
00:58:01.728: :00:58:01.728
01:05:52.615: :01:05:52.615
01:13:33.826: :01:13:33.826
01:23:18.660: :01:23:18.660
01:28:46.905: :01:28:46.905

Download Links

CONTRASEÑA PARA DESCOMPRIMIR

APORTES NUEVOS

cinemaniahdd.com

APORTES VIEJOS

CinemaniaHD.org

COMPRA O RENUEVA TU PREMIUM DE UPLOADED DESDE EL SIGUIENTE LINK:

http://ul.to/ref/9821430

SI GUSTAS PUEDES SEGUIRNOS EN LAS REDES SOCIALES

Facebook

Twitter

Post Relacionados