Alpha (2018) Web-DL 1080p Subtitulado

Alpha (2018) Web-DL 1080p Subtitulado; Mega, Google Drive. Alpha es una aventura épica ambientada en la última Edad de Hielo. Europa, 20.000 años atrás. En mitad de su primera cacería con el grupo de élite de su tribu, un joven es herido y dado por muerto. Al despertar se encontrará débil y solo, y deberá aprender a sobrevivir y abrirse camino ante la dura y cruel naturaleza. Acompañado a regañadientes de un lobo abandonado por su manada, los dos aprenderán a confiar el uno en el otro, convertirse en aliados y superar los innumerables peligros para, contra toda posibilidad, encontrar el camino a casa antes de que llegue el letal invierno.



Titulo original Alpha
Audio Ingles AC3 5.1 iTunes
Calidad: WEBDL Resolucion: 1920x800p Formato: MKV
Encoder: FGT Peso: 3.33 GiB Duracion: 1h 36m
Subtitulos: Español Latino SRT - Ingles SRT
  • No hay video embed

Alpha (2018) Web-DL1080p Subtitulado.mkv
Format: Matroska
Format version: Version 4 / Version 2
File size : 3.33 GiB
Duration: 1 h 36 min
Overall bit rate: 4 942 kb/s
Movie name: CinemaniaHDD.Net
Encoded date: UTC 2018-10-27 03:58:47
Writing application : mkvmerge v25.0.0 ('Prog Noir') 64-bit
Writing library : libebml v1.3.6 + libmatroska v1.4.9
Cover : Yes
Attachments : small_cover.jpg / small_cover_land.jpg / cover.jpg / cover_land.jpg

Video
ID: 1
Format: AVC
Format/Info : Advanced Video Codec
Format profile: High@L4
Format settings : CABAC / 5 Ref Frames
Format settings, CABAC: Yes
Format settings, RefFrames: 5 frames
Codec ID: V_MPEG4/ISO/AVC
Duration: 1 h 36 min
Bit rate: 4 556 kb/s
Width : 1 920 pixels
Height: 800 pixels
Display aspect ratio: 2.40:1
Frame rate mode : Constant
Frame rate: 23.976 (24000/1001) FPS
Color space : YUV
Chroma subsampling: 4:2:0
Bit depth : 8 bits
Scan type : Progressive
Bits/(Pixel*Frame): 0.124
Stream size : 3.07 GiB (92%)
Title : HD1080p [Web-DL]
Default : Yes
Forced: No
Color range : Limited
Color primaries : BT.709
Transfer characteristics: BT.709
Matrix coefficients : BT.709

Audio
ID: 2
Format: AC-3
Format/Info : Audio Coding 3
Format settings, Endianness : Big
Codec ID: A_AC3
Duration: 1 h 36 min
Bit rate mode : Constant
Bit rate: 384 kb/s
Channel(s): 6 channels
Channel positions : Front: L C R, Side: L R, LFE
Sampling rate : 48.0 kHz
Frame rate: 31.250 FPS (1536 SPF)
Bit depth : 16 bits
Compression mode: Lossy
Delay relative to video : -42 ms
Stream size : 265 MiB (8%)
Title : AC3_5.1_Web-DL_Eng
Language: English
Service kind: Complete Main
Default : Yes
Forced: No

Text #1
ID: 3
Format: UTF-8
Codec ID: S_TEXT/UTF8
Codec ID/Info : UTF-8 Plain Text
Duration: 1 h 28 min
Bit rate: 8 b/s
Count of elements : 230
Stream size : 5.20 KiB (0%)
Title : Sub_Esp
Language: Spanish
Default : Yes
Forced: Yes

Text #2
ID: 4
Format: UTF-8
Codec ID: S_TEXT/UTF8
Codec ID/Info : UTF-8 Plain Text
Duration: 1 h 24 min
Bit rate: 6 b/s
Count of elements : 214
Stream size : 4.31 KiB (0%)
Title : Sub_Eng
Language: English
Default : No
Forced: No

Menu
00:00:00.000: en:1
00:07:43.713: en:2
00:10:56.072: en:3
00:16:56.640: en:4
00:21:43.301: en:5
00:25:54.969: en:6
00:32:36.620: en:7
00:38:19.254: en:8
00:42:37.387: en:9
00:47:54.328: en:10
00:54:07.409: en:11
00:59:27.228: en:12
01:07:08.981: en:13
01:14:08.734: en:14
01:18:56.271: en:15
01:25:42.302: en:16

Download Links

CONTRASEÑA PARA DESCOMPRIMIR

APORTES NUEVOS

cinemaniahdd.com

APORTES VIEJOS

CinemaniaHD.org

COMPRA O RENUEVA TU PREMIUM DE UPLOADED DESDE EL SIGUIENTE LINK:

http://ul.to/ref/9821430

SI GUSTAS PUEDES SEGUIRNOS EN LAS REDES SOCIALES

Facebook

Twitter

Post Relacionados