American Gods (2017) Primera Temporada Full 1080p Latino

Sombra cumple condena cuando su mujer y su mejor amigo acaban de morir en un accidente de coche. Es en mitad de un tormentoso vuelo, de camino al funeral, donde conoce al Señor Miércoles. Ahora Sombra debe ejercer como guardaespaldas del Señor Miércoles durante un peligroso viaje por los Estados Unidos, un viaje de reclutamiento ante una guerra inminente entre los antiguos dioses mitológicos y los modernos dioses paganos de la tecnología.

 
Latino: E-AC3 5.1 Amazon  –  Ingles: DTS 5.1 Bluray
Creditos audio Latino: Electroman



Titulo Original American Gods
Año 2017-04-30
Duracion 1h 0m
Director
Reparto , , , , , ,
Productora
Genero
Titulo original American Gods
Audio Se especifica abajo de la Sinopsis
Calidad: Full 1080p Resolucion: 1920x1080p Formato: MKV
Encoder: Dracarys Peso: 3.20 GiB X Capitulo Duracion: 1h 0m
Subtitulos: Español Latino SRT
  • No hay video embed

Format                                 : Matroska
Format version                         : Version 4 / Version 2
File size                              : 3.64 GiB
Duration                               : 1 h 2 min
Overall bit rate                       : 8 301 kb/s
Movie name                             : CinemaniaHDD.net
Encoded date                           : UTC 2018-10-31 00:47:52 / UTC 2018-10-24T02:26:04Z
Writing application                    : mkvmerge v15.0.0 ('Duel with the Devil') 64-bit
Writing library                        : libebml v1.3.5 + libmatroska v1.4.5 / Lavf57.7.2

Video
ID                                     : 1
Format                                 : AVC
Format/Info                            : Advanced Video Codec
Format profile                         : High@L4.1
Format settings                        : CABAC / 4 Ref Frames
Format settings, CABAC                 : Yes
Format settings, RefFrames             : 4 frames
Codec ID                               : V_MPEG4/ISO/AVC
Duration                               : 1 h 2 min
Bit rate                               : 5 986 kb/s
Width                                  : 1 920 pixels
Height                                 : 1 080 pixels
Display aspect ratio                   : 16:9
Frame rate mode                        : Constant
Frame rate                             : 23.976 (24000/1001) FPS
Color space                            : YUV
Chroma subsampling                     : 4:2:0
Bit depth                              : 8 bits
Scan type                              : Progressive
Bits/(Pixel*Frame)                     : 0.120
Stream size                            : 2.62 GiB (72%)
Writing library                        : x264 core 148 r2708 86b7198
Encoding settings                      : cabac=1 / ref=4 / deblock=1:0:0 / analyse=0x3:0x133 / me=esa / subme=10 / psy=1 / psy_rd=1.00:0.00 / mixed_ref=1 / me_range=24 / chroma_me=1 / trellis=2 / 8x8dct=1 / cqm=0 / deadzone=21,11 / fast_pskip=1 / chroma_qp_offset=-2 / threads=34 / lookahead_threads=5 / sliced_threads=0 / nr=0 / decimate=1 / interlaced=0 / bluray_compat=0 / constrained_intra=0 / bframes=8 / b_pyramid=2 / b_adapt=2 / b_bias=0 / direct=3 / weightb=1 / open_gop=0 / weightp=2 / keyint=240 / keyint_min=24 / scenecut=40 / intra_refresh=0 / rc_lookahead=60 / rc=crf / mbtree=1 / crf=20.0 / qcomp=0.60 / qpmin=0 / qpmax=69 / qpstep=4 / vbv_maxrate=62500 / vbv_bufsize=78125 / crf_max=0.0 / nal_hrd=none / filler=0 / ip_ratio=1.40 / aq=1:1.00
Language                               : English
Default                                : Yes
Forced                                 : No
Color range                            : Limited
Color primaries                        : BT.709
Transfer characteristics               : BT.709
Matrix coefficients                    : BT.709
Statistics Tags Issue                  : mkvmerge v15.0.0 ('Duel with the Devil') 64-bit 2018-10-31 00:47:52 / mkvmerge v15.0.0 ('Duel with the Devil') 64-bit 2018-10-31 00:47:52 / UTC 2018-10-24T02:26:04Z
FromStats_BitRate                      : 6149427
FromStats_Duration                     : 01:02:44.928000000
FromStats_FrameCount                   : 90268
FromStats_StreamSize                   : 2894018744

Audio #1
ID                                     : 2
Format                                 : E-AC-3
Format/Info                            : Enhanced Audio Coding 3
Format settings, Endianness            : Big
Codec ID                               : A_EAC3
Duration                               : 1 h 2 min
Bit rate mode                          : Constant
Bit rate                               : 640 kb/s
Channel(s)                             : 6 channels
Channel positions                      : Front: L C R, Side: L R, LFE
Sampling rate                          : 48.0 kHz
Frame rate                             : 187.500 FPS (256 SPF)
Compression mode                       : Lossy
Stream size                            : 287 MiB (8%)
Language                               : Spanish
Service kind                           : Complete Main
Default                                : Yes
Forced                                 : No
Statistics Tags Issue                  : mkvmerge v15.0.0 ('Duel with the Devil') 64-bit 2018-10-31 00:47:52 / mkvmerge v15.0.0 ('Duel with the Devil') 64-bit 2018-10-31 00:47:52 / UTC 2018-10-24T02:26:04Z
FromStats_BitRate                      : 640000
FromStats_Duration                     : 01:02:43.776000000
FromStats_FrameCount                   : 117618
FromStats_StreamSize                   : 301102080

Audio #2
ID                                     : 3
Format                                 : DTS
Format/Info                            : Digital Theater Systems
Mode                                   : 16
Format settings, Endianness            : Big
Codec ID                               : A_DTS
Duration                               : 1 h 2 min
Bit rate mode                          : Constant
Bit rate                               : 1 509 kb/s
Channel(s)                             : 6 channels
Channel positions                      : Front: L C R, Side: L R, LFE
Sampling rate                          : 48.0 kHz
Frame rate                             : 93.750 FPS (512 SPF)
Bit depth                              : 24 bits
Compression mode                       : Lossy
Stream size                            : 677 MiB (18%)
Language                               : English
Default                                : No
Forced                                 : No
Statistics Tags Issue                  : mkvmerge v15.0.0 ('Duel with the Devil') 64-bit 2018-10-31 00:47:52 / mkvmerge v15.0.0 ('Duel with the Devil') 64-bit 2018-10-31 00:47:52 / UTC 2018-10-24T02:26:04Z
FromStats_BitRate                      : 1508999
FromStats_Duration                     : 01:02:43.926000000
FromStats_FrameCount                   : 352868
FromStats_StreamSize                   : 709970416

Text
ID                                     : 4
Format                                 : UTF-8
Codec ID                               : S_TEXT/UTF8
Codec ID/Info                          : UTF-8 Plain Text
Language                               : Spanish
Default                                : No
Forced                                 : No
Statistics Tags Issue                  : mkvmerge v15.0.0 ('Duel with the Devil') 64-bit 2018-10-31 00:47:52 / mkvmerge v15.0.0 ('Duel with the Devil') 64-bit 2018-10-31 00:47:52 / UTC 2018-10-24T02:26:04Z
FromStats_BitRate                      : 58
FromStats_Duration                     : 00:57:55.101000000
FromStats_FrameCount                   : 780
FromStats_StreamSize                   : 25316

Menu
00:00:00.000                           : :Chapter 1
00:01:37.306                           : :Chapter 2
00:12:07.560                           : :Chapter 3
00:27:04.081                           : :Chapter 4
00:46:38.504                           : :Chapter 5

 

Download Links

CONTRASEÑA PARA DESCOMPRIMIR

APORTES NUEVOS

cinemaniahdd.com

APORTES VIEJOS

CinemaniaHD.org

COMPRA O RENUEVA TU PREMIUM DE UPLOADED DESDE EL SIGUIENTE LINK:

http://ul.to/ref/9821430

SI GUSTAS PUEDES SEGUIRNOS EN LAS REDES SOCIALES

Facebook

Twitter

Post Relacionados