American Horror Story: Coven (2013) Full 1080p Latino

Serie de TV de 13 capítulos (2013-2014). Narra la historia secreta de las brujas y la brujería en América. Más de 300 años después del juicio a las brujas de Salem, las que lograron huir de la justicia se encuentran en peligro de extinción. Tras sufrir misteriosos ataques, han decidido mandar a las más jóvenes a una escuela de Nueva Orleáns para que aprendan a protegerse. La recién llegada, Zoe (Farmiga), esconde un terrible secreto. Alarmada por la situación, Fiona (Lange), la bruja Suprema, largo tiempo ausente, regresa, decidida a proteger a la secta. Tercera serie de la antología “American Horror Story”.



Titulo Original American Horror Story
Año 2013
Duracion 0h 43m
Director
Reparto , , , , , , , ,
Productora
Genero
Titulo original American Horror Story
Audio Español Latino AC3 2.0 DVD - Ingles DTS 5.1 BLURAY
Calidad: Full 1080p Resolucion: 1920x1080p Formato: MKV
Encoder: Dracarys Peso: 3.50 GiB X Capitulo Duracion: 0h 43m
Subtitulos: Español Latino PGS - Ingles PGS
  • No hay video embed

Format                                   : Matroska
Format version                           : Version 4 / Version 2
File size                                : 3.60 GiB
Duration                                 : 48 min 39 s
Overall bit rate                         : 10.6 Mb/s
Movie name                               : CinemaniaHDD.net
Encoded date                             : UTC 2018-10-21 04:02:43 / UTC 2018-10-20T05:03:17Z
Writing application                      : mkvmerge v15.0.0 ('Duel with the Devil') 64-bit
Writing library                          : libebml v1.3.5 + libmatroska v1.4.5 / Lavf57.7.2

Video
ID                                       : 1
Format                                   : AVC
Format/Info                              : Advanced Video Codec
Format profile                           : High@L4.1
Format settings                          : CABAC / 4 Ref Frames
Format settings, CABAC                   : Yes
Format settings, RefFrames               : 4 frames
Codec ID                                 : V_MPEG4/ISO/AVC
Duration                                 : 48 min 39 s
Bit rate                                 : 8 602 kb/s
Width                                    : 1 920 pixels
Height                                   : 1 080 pixels
Display aspect ratio                     : 16:9
Frame rate mode                          : Constant
Frame rate                               : 23.976 (24000/1001) FPS
Color space                              : YUV
Chroma subsampling                       : 4:2:0
Bit depth                                : 8 bits
Scan type                                : Progressive
Bits/(Pixel*Frame)                       : 0.173
Stream size                              : 2.92 GiB (81%)
Writing library                          : x264 core 148 r2708 86b7198
Encoding settings                        : cabac=1 / ref=4 / deblock=1:0:0 / analyse=0x3:0x133 / me=esa / subme=10 / psy=1 / psy_rd=1.00:0.00 / mixed_ref=1 / me_range=24 / chroma_me=1 / trellis=2 / 8x8dct=1 / cqm=0 / deadzone=21,11 / fast_pskip=1 / chroma_qp_offset=-2 / threads=34 / lookahead_threads=5 / sliced_threads=0 / nr=0 / decimate=1 / interlaced=0 / bluray_compat=0 / constrained_intra=0 / bframes=8 / b_pyramid=2 / b_adapt=2 / b_bias=0 / direct=3 / weightb=1 / open_gop=0 / weightp=2 / keyint=240 / keyint_min=24 / scenecut=40 / intra_refresh=0 / rc_lookahead=60 / rc=crf / mbtree=1 / crf=20.0 / qcomp=0.60 / qpmin=0 / qpmax=69 / qpstep=4 / vbv_maxrate=62500 / vbv_bufsize=78125 / crf_max=0.0 / nal_hrd=none / filler=0 / ip_ratio=1.40 / aq=1:1.00
Language                                 : English
Default                                  : Yes
Forced                                   : No
Color range                              : Limited
Color primaries                          : BT.709
Transfer characteristics                 : BT.709
Matrix coefficients                      : BT.709
Statistics Tags Issue                    : mkvmerge v15.0.0 ('Duel with the Devil') 64-bit 2018-10-21 04:02:43 / mkvmerge v15.0.0 ('Duel with the Devil') 64-bit 2018-10-21 04:02:43 / UTC 2018-10-20T05:03:17Z
FromStats_BitRate                        : 8777730
FromStats_Duration                       : 00:48:39.959000000
FromStats_FrameCount                     : 70009
FromStats_StreamSize                     : 3203826771

Audio #1
ID                                       : 2
Format                                   : AC-3
Format/Info                              : Audio Coding 3
Format settings, Endianness              : Big
Codec ID                                 : A_AC3
Duration                                 : 48 min 39 s
Bit rate mode                            : Constant
Bit rate                                 : 256 kb/s
Channel(s)                               : 2 channels
Channel positions                        : Front: L R
Sampling rate                            : 48.0 kHz
Frame rate                               : 31.250 FPS (1536 SPF)
Bit depth                                : 16 bits
Compression mode                         : Lossy
Stream size                              : 89.1 MiB (2%)
Language                                 : Spanish
Service kind                             : Complete Main
Default                                  : Yes
Forced                                   : No
Statistics Tags Issue                    : mkvmerge v15.0.0 ('Duel with the Devil') 64-bit 2018-10-21 04:02:43 / mkvmerge v15.0.0 ('Duel with the Devil') 64-bit 2018-10-21 04:02:43 / UTC 2018-10-20T05:03:17Z
FromStats_BitRate                        : 256000
FromStats_Duration                       : 00:48:39.872000000
FromStats_FrameCount                     : 91246
FromStats_StreamSize                     : 93435904

Audio #2
ID                                       : 3
Format                                   : DTS
Format/Info                              : Digital Theater Systems
Mode                                     : 16
Format settings, Endianness              : Big
Codec ID                                 : A_DTS
Duration                                 : 48 min 39 s
Bit rate mode                            : Constant
Bit rate                                 : 1 509 kb/s
Channel(s)                               : 6 channels
Channel positions                        : Front: L C R, Side: L R, LFE
Sampling rate                            : 48.0 kHz
Frame rate                               : 93.750 FPS (512 SPF)
Bit depth                                : 24 bits
Compression mode                         : Lossy
Stream size                              : 525 MiB (14%)
Language                                 : English
Default                                  : No
Forced                                   : No
Statistics Tags Issue                    : mkvmerge v15.0.0 ('Duel with the Devil') 64-bit 2018-10-21 04:02:43 / mkvmerge v15.0.0 ('Duel with the Devil') 64-bit 2018-10-21 04:02:43 / UTC 2018-10-20T05:03:17Z
FromStats_BitRate                        : 1508999
FromStats_Duration                       : 00:48:39.958000000
FromStats_FrameCount                     : 273746
FromStats_StreamSize                     : 550776952

Text #1
ID                                       : 4
Format                                   : PGS
Muxing mode                              : zlib
Codec ID                                 : S_HDMV/PGS
Codec ID/Info                            : Picture based subtitle format used on BDs/HD-DVDs
Language                                 : English
Default                                  : No
Forced                                   : No
Statistics Tags Issue                    : mkvmerge v15.0.0 ('Duel with the Devil') 64-bit 2018-10-21 04:02:43 / mkvmerge v15.0.0 ('Duel with the Devil') 64-bit 2018-10-21 04:02:43 / UTC 2018-10-20T05:03:17Z
FromStats_BitRate                        : 37336
FromStats_Duration                       : 00:47:38.105000000
FromStats_FrameCount                     : 1258
FromStats_StreamSize                     : 13338800

Text #2
ID                                       : 5
Format                                   : PGS
Muxing mode                              : zlib
Codec ID                                 : S_HDMV/PGS
Codec ID/Info                            : Picture based subtitle format used on BDs/HD-DVDs
Language                                 : Spanish
Default                                  : No
Forced                                   : No
Statistics Tags Issue                    : mkvmerge v15.0.0 ('Duel with the Devil') 64-bit 2018-10-21 04:02:43 / mkvmerge v15.0.0 ('Duel with the Devil') 64-bit 2018-10-21 04:02:43 / UTC 2018-10-20T05:03:17Z
FromStats_BitRate                        : 34976
FromStats_Duration                       : 00:48:24.651000000
FromStats_FrameCount                     : 1116
FromStats_StreamSize                     : 12699428

Menu
00:00:00.000                             : :Chapter 1
00:05:40.507                             : :Chapter 2
00:09:58.932                             : :Chapter 3
00:12:39.842                             : :Chapter 4
00:15:53.494                             : :Chapter 5
00:21:59.401                             : :Chapter 6
00:24:37.226                             : :Chapter 7
00:28:23.076                             : :Chapter 8
00:32:30.574                             : :Chapter 9
00:36:17.008                             : :Chapter 10
00:38:54.040                             : :Chapter 11
00:43:30.399                             : :Chapter 12

 

Download Links

CONTRASEÑA PARA DESCOMPRIMIR

APORTES NUEVOS

cinemaniahdd.com

APORTES VIEJOS

CinemaniaHD.org

COMPRA O RENUEVA TU PREMIUM DE UPLOADED DESDE EL SIGUIENTE LINK:

http://ul.to/ref/9821430

SI GUSTAS PUEDES SEGUIRNOS EN LAS REDES SOCIALES

Facebook

Twitter

Post Relacionados