Amor de Vinilo (2018) Web-DL 1080p latino

Amor de Vinilo (2018) Web-DL 1080p latino; Mega, Google Drive. Annie rompe con su pareja, Duncan, un profesor que idolatra hasta la locura a Tucker Crowe, un rockero célebre en los 90 del que ahora poca gente se acuerda. Después de su ruptura, Annie establece una amistad profunda con Tucker.



Titulo original Juliet, Naked
Audio Español Latino AC3 5.1 DVD - Ingles AC3 5.1 iTunes
Calidad: WEBDL Resolucion: 1912x796p Formato: MKV
Encoder: EVO Peso: 3.69 GiB Duracion: 1h 37m
Subtitulos: Español Latino SRT
  • No hay video embed

Amor de Vinilo (2018) Web-DL 1080p Latino.mkv
Format: Matroska
Format version: Version 4 / Version 2
File size : 3.69 GiB
Duration: 1 h 37 min
Overall bit rate: 5 408 kb/s
Movie name: CinemaniaHDD.Net
Encoded date: UTC 2018-11-04 05:20:01
Writing application : mkvmerge v25.0.0 ('Prog Noir') 64-bit
Writing library : libebml v1.3.6 + libmatroska v1.4.9

Video
ID: 1
Format: AVC
Format/Info : Advanced Video Codec
Format profile: High@L4
Format settings : CABAC / 5 Ref Frames
Format settings, CABAC: Yes
Format settings, RefFrames: 5 frames
Codec ID: V_MPEG4/ISO/AVC
Duration: 1 h 37 min
Bit rate: 4 574 kb/s
Width : 1 912 pixels
Height: 796 pixels
Display aspect ratio: 2.40:1
Frame rate mode : Constant
Frame rate: 23.976 FPS
Color space : YUV
Chroma subsampling: 4:2:0
Bit depth : 8 bits
Scan type : Progressive
Bits/(Pixel*Frame): 0.125
Stream size : 3.12 GiB (85%)
Title : HD1080p [Web-DL]
Language: English
Default : Yes
Forced: No
Color range : Limited
Color primaries : BT.709
Transfer characteristics: BT.709
Matrix coefficients : BT.709

Audio #1
ID: 2
Format: AC-3
Format/Info : Audio Coding 3
Format settings, Endianness : Big
Codec ID: A_AC3
Duration: 1 h 37 min
Bit rate mode : Constant
Bit rate: 448 kb/s
Channel(s): 6 channels
Channel positions : Front: L C R, Side: L R, LFE
Sampling rate : 48.0 kHz
Frame rate: 31.250 FPS (1536 SPF)
Bit depth : 16 bits
Compression mode: Lossy
Stream size : 313 MiB (8%)
Title : AC3_5.1_DVD_Esp
Language: Spanish
Service kind: Complete Main
Default : Yes
Forced: Yes

Audio #2
ID: 3
Format: AC-3
Format/Info : Audio Coding 3
Format settings, Endianness : Big
Codec ID: A_AC3
Duration: 1 h 37 min
Bit rate mode : Constant
Bit rate: 384 kb/s
Channel(s): 6 channels
Channel positions : Front: L C R, Side: L R, LFE
Sampling rate : 48.0 kHz
Frame rate: 31.250 FPS (1536 SPF)
Bit depth : 16 bits
Compression mode: Lossy
Delay relative to video : -42 ms
Stream size : 268 MiB (7%)
Title : AC3_5.1_Web-DL_Eng
Language: English
Service kind: Complete Main
Default : No
Forced: No

Text
ID: 4
Format: UTF-8
Codec ID: S_TEXT/UTF8
Codec ID/Info : UTF-8 Plain Text
Duration: 1 h 32 min
Bit rate: 86 b/s
Count of elements : 1497
Stream size : 58.7 KiB (0%)
Title : Sub_Esp
Language: Spanish
Default : Yes
Forced: No

Menu
00:00:00.000: en:1
00:03:03.000: en:2
00:12:07.000: en:3
00:22:15.000: en:4
00:32:21.000: en:5
00:42:21.000: en:6
00:53:23.000: en:7
01:04:31.000: en:8
01:14:35.000: en:9
01:23:37.000: en:10
01:31:46.000: en:11

Download Links

CONTRASEÑA PARA DESCOMPRIMIR

APORTES NUEVOS

cinemaniahdd.com

APORTES VIEJOS

CinemaniaHD.org

COMPRA O RENUEVA TU PREMIUM DE UPLOADED DESDE EL SIGUIENTE LINK:

http://ul.to/ref/9821430

SI GUSTAS PUEDES SEGUIRNOS EN LAS REDES SOCIALES

Facebook

Twitter

Post Relacionados