Ant-Man y la Avispa (2018) 1080p Latino

Ant-man Y La Avispa (2018) 1080p Latino. Mega, Google Drive. Tras lo sucedido en Capitán América: Civil War, Scott Lang (Paul Rudd), también conocido como Ant-Man, debe lidiar a la par con las consecuencias de sus acciones como superhéroe y como padre. Mientras él intenta equilibrar su vida familiar y sus responsabilidades como Ant-Man, Hope Van Dyne (Evangeline Lilly) y Hank Pym (Michael Douglas) necesitarán su ayuda para realizar una misión muy urgente. Scott tendrá, una vez más, que ponerse su traje y aprender a luchar junto a The Wasp para formar un equipo que logre destapar secretos de su pasado.



Titulo original Ant-Man and the Wasp
Audio Español Latino AC3 5.1 BLURAY - Ingles AC3 5.1 BLURAY
Calidad: 1080p Resolucion: 1920x808p Formato: MKV
Encoder: chesse92 Peso: 3.75 GiB Duracion: 1h 59m
Subtitulos: Español Latino SRT- FORZADOS SRT
  • No hay video embed

Ant-Man Y La Avispa (2018) 1080p Latino.mkv
Format: Matroska
Format version: Version 4 / Version 2
File size : 3.75 GiB
Duration: 1 h 58 min
Overall bit rate: 4 541 kb/s
Movie name: CinemaniaHDD.Net
Encoded date: UTC 2018-10-05 02:11:45 / UTC 2018-10-04T12:58:24Z
Writing application : mkvmerge v25.0.0 ('Prog Noir') 64-bit
Writing library : libebml v1.3.6 + libmatroska v1.4.9 / Lavf57.7.2

Video
ID: 1
Format: AVC
Format/Info : Advanced Video Codec
Format profile: High@L4.1
Format settings : CABAC / 5 Ref Frames
Format settings, CABAC: Yes
Format settings, RefFrames: 5 frames
Codec ID: V_MPEG4/ISO/AVC
Duration: 1 h 58 min
Bit rate: 3 500 kb/s
Width : 1 920 pixels
Height: 808 pixels
Display aspect ratio: 2.40:1
Frame rate mode : Constant
Frame rate: 23.976 (24000/1001) FPS
Color space : YUV
Chroma subsampling: 4:2:0
Bit depth : 8 bits
Scan type : Progressive
Bits/(Pixel*Frame): 0.094
Stream size : 2.77 GiB (74%)
Title : HD1080p [Bluray]
Writing library : x264 core 155 r2893 b00bcaf
Encoding settings : cabac=1 / ref=5 / deblock=1:0:0 / analyse=0x3:0x133 / me=umh / subme=9 / psy=1 / psy_rd=1.00:0.00 / mixed_ref=1 / me_range=16 / chroma_me=1 / trellis=2 / 8x8dct=1 / cqm=0 / deadzone=21,11 / fast_pskip=1 / chroma_qp_offset=-2 / threads=25 / lookahead_threads=2 / sliced_threads=0 / nr=0 / decimate=1 / interlaced=0 / bluray_compat=0 / constrained_intra=0 / bframes=3 / b_pyramid=2 / b_adapt=2 / b_bias=0 / direct=3 / weightb=1 / open_gop=0 / weightp=2 / keyint=240 / keyint_min=24 / scenecut=40 / intra_refresh=0 / rc_lookahead=60 / rc=abr / mbtree=1 / bitrate=3500 / ratetol=1.0 / qcomp=0.60 / qpmin=0 / qpmax=69 / qpstep=4 / vbv_maxrate=62500 / vbv_bufsize=78125 / nal_hrd=none / filler=0 / ip_ratio=1.40 / aq=1:1.00
Default : Yes
Forced: No
Color range : Limited
Color primaries : BT.709
Transfer characteristics: BT.709
Matrix coefficients : BT.709
Statistics Tags Issue : mkvmerge v25.0.0 ('Prog Noir') 64-bit 2018-10-05 02:11:45 / mkvmerge v25.0.0 ('Prog Noir') 64-bit 2018-10-05 02:11:45 / UTC 2018-10-04T12:58:24Z
FromStats_BitRate : 3450443
FromStats_Duration: 01:58:06.496000000
FromStats_FrameCount: 169906
FromStats_StreamSize: 3056444483

Audio #1
ID: 2
Format: AC-3
Format/Info : Audio Coding 3
Format settings, Endianness : Big
Codec ID: A_AC3
Duration: 1 h 58 min
Bit rate mode : Constant
Bit rate: 640 kb/s
Channel(s): 6 channels
Channel positions : Front: L C R, Side: L R, LFE
Sampling rate : 48.0 kHz
Frame rate: 31.250 FPS (1536 SPF)
Bit depth : 16 bits
Compression mode: Lossy
Delay relative to video : -5 ms
Stream size : 541 MiB (14%)
Title : AC3_5.1_Bluray_Esp
Language: Spanish
Service kind: Complete Main
Default : Yes
Forced: No
Statistics Tags Issue : mkvmerge v25.0.0 ('Prog Noir') 64-bit 2018-10-05 02:11:45 / mkvmerge v25.0.0 ('Prog Noir') 64-bit 2018-10-05 02:11:45 / UTC 2018-10-04T12:58:24Z
FromStats_BitRate : 640000
FromStats_Duration: 01:58:06.560000000
FromStats_FrameCount: 221455
FromStats_StreamSize: 566924800

Audio #2
ID: 3
Format: AC-3
Format/Info : Audio Coding 3
Format settings, Endianness : Big
Codec ID: A_AC3
Duration: 1 h 58 min
Bit rate mode : Constant
Bit rate: 448 kb/s
Channel(s): 6 channels
Channel positions : Front: L C R, Side: L R, LFE
Sampling rate : 48.0 kHz
Frame rate: 31.250 FPS (1536 SPF)
Bit depth : 16 bits
Compression mode: Lossy
Stream size : 378 MiB (10%)
Title : AC3_5.1_Bluray_Eng
Language: English
Service kind: Complete Main
Default : No
Forced: No
Statistics Tags Issue : mkvmerge v25.0.0 ('Prog Noir') 64-bit 2018-10-05 02:11:45 / mkvmerge v25.0.0 ('Prog Noir') 64-bit 2018-10-05 02:11:45 / UTC 2018-10-04T12:58:24Z
FromStats_BitRate : 448000
FromStats_Duration: 01:58:06.528000000
FromStats_FrameCount: 221454
FromStats_StreamSize: 396845568

Text #1
ID: 4
Format: UTF-8
Codec ID: S_TEXT/UTF8
Codec ID/Info : UTF-8 Plain Text
Title : Sub_Forzados
Language: Spanish
Default : Yes
Forced: Yes
Statistics Tags Issue : mkvmerge v25.0.0 ('Prog Noir') 64-bit 2018-10-05 02:11:45 / mkvmerge v25.0.0 ('Prog Noir') 64-bit 2018-10-05 02:11:45 / UTC 2018-10-04T12:58:24Z
FromStats_BitRate : 0
FromStats_Duration: 01:54:39.171000000
FromStats_FrameCount: 8
FromStats_StreamSize: 228

Text #2
ID: 5
Format: UTF-8
Codec ID: S_TEXT/UTF8
Codec ID/Info : UTF-8 Plain Text
Title : Sub_Esp
Language: Spanish
Default : No
Forced: No
Statistics Tags Issue : mkvmerge v25.0.0 ('Prog Noir') 64-bit 2018-10-05 02:11:45 / mkvmerge v25.0.0 ('Prog Noir') 64-bit 2018-10-05 02:11:45 / UTC 2018-10-04T12:58:24Z
FromStats_BitRate : 57
FromStats_Duration: 01:57:51.154000000
FromStats_FrameCount: 1794
FromStats_StreamSize: 51256

Text #3
ID: 6
Format: UTF-8
Codec ID: S_TEXT/UTF8
Codec ID/Info : UTF-8 Plain Text
Title : Sub_Eng
Language: English
Default : No
Forced: No
Statistics Tags Issue : mkvmerge v25.0.0 ('Prog Noir') 64-bit 2018-10-05 02:11:45 / mkvmerge v25.0.0 ('Prog Noir') 64-bit 2018-10-05 02:11:45 / UTC 2018-10-04T12:58:24Z
FromStats_BitRate : 65
FromStats_Duration: 01:50:57.783000000
FromStats_FrameCount: 1930
FromStats_StreamSize: 54815

Menu
00:00:00.000: :00:00:00.000
00:04:03.034: :00:04:03.034
00:10:16.407: :00:10:16.407
00:13:39.986: :00:13:39.861
00:21:25.451: :00:21:25.451
00:29:07.829: :00:29:07.829
00:36:09.084: :00:36:09.084
00:40:56.579: :00:40:56.579
00:50:17.431: :00:50:17.431
00:58:59.077: :00:58:59.077
01:04:56.434: :01:04:56.434
01:12:54.287: :01:12:54.287
01:18:32.124: :01:18:32.124
01:24:44.913: :01:24:44.913
01:29:47.340: :01:29:47.340
01:36:16.271: :01:36:16.270
01:43:35.334: :01:43:35.334
01:46:59.830: :01:46:59.830

Download Links

CONTRASEÑA PARA DESCOMPRIMIR

APORTES NUEVOS

cinemaniahdd.com

APORTES VIEJOS

CinemaniaHD.org

COMPRA O RENUEVA TU PREMIUM DE UPLOADED DESDE EL SIGUIENTE LINK:

http://ul.to/ref/9821430

SI GUSTAS PUEDES SEGUIRNOS EN LAS REDES SOCIALES

Facebook

Twitter

Post Relacionados