Antz (Hormiguitaz) (1998) Full 1080p Latino

Z-4196 es tan sólo una neurótica hormiga obrera macho, una más entre sus millones de hermanas. Después de bailar con la princesa Bala, se enamora de ella, pero se trata de un amor imposible. Convence, sin embargo, a un amigo para que le ceda su puesto en un desfile militar para poder estar cerca de la princesa. La excavación de un nuevo túnel es supervisada por el general Mandible, una hormiga ambiciosa que convence a la reina de la necesidad de enviar al batallón del hormiguero a la guerra contra las termitas. Y en ese batallón se encuentra el asustadizo y cobarde Z…



Titulo original Antz
Audio Español Latino DTS 5.1 BLURAY - Ingles DTS 5.1 BLURAY
Calidad: Full 1080p Resolucion: 1920x1080p Formato: MKV
Encoder: Dracarys Peso: 6.00 GiB Duracion: 1h 23m
Subtitulos: Español Latino PGS - Ingles PGS
  • No hay video embed

Format                                   : Matroska
Format version                           : Version 4 / Version 2
File size                                : 6.00 GiB
Duration                                 : 1 h 23 min
Overall bit rate                         : 10.3 Mb/s
Movie name                               : CinemaniaHDD.net
Encoded date                             : UTC 2018-11-07 22:57:11 / UTC 2018-11-05T07:29:41Z
Writing application                      : mkvmerge v15.0.0 ('Duel with the Devil') 64-bit
Writing library                          : libebml v1.3.5 + libmatroska v1.4.5 / Lavf57.7.2

Video
ID                                       : 1
Format                                   : AVC
Format/Info                              : Advanced Video Codec
Format profile                           : High@L4.1
Format settings                          : CABAC / 4 Ref Frames
Format settings, CABAC                   : Yes
Format settings, RefFrames               : 4 frames
Codec ID                                 : V_MPEG4/ISO/AVC
Duration                                 : 1 h 23 min
Bit rate                                 : 7 830 kb/s
Width                                    : 1 920 pixels
Height                                   : 1 080 pixels
Display aspect ratio                     : 16:9
Frame rate mode                          : Constant
Frame rate                               : 23.976 (24000/1001) FPS
Color space                              : YUV
Chroma subsampling                       : 4:2:0
Bit depth                                : 8 bits
Scan type                                : Progressive
Bits/(Pixel*Frame)                       : 0.157
Stream size                              : 4.56 GiB (76%)
Writing library                          : x264 core 148 r2708 86b7198
Encoding settings                        : cabac=1 / ref=4 / deblock=1:0:0 / analyse=0x3:0x133 / me=esa / subme=10 / psy=1 / psy_rd=1.00:0.00 / mixed_ref=1 / me_range=24 / chroma_me=1 / trellis=2 / 8x8dct=1 / cqm=0 / deadzone=21,11 / fast_pskip=1 / chroma_qp_offset=-2 / threads=34 / lookahead_threads=5 / sliced_threads=0 / nr=0 / decimate=1 / interlaced=0 / bluray_compat=0 / constrained_intra=0 / bframes=8 / b_pyramid=2 / b_adapt=2 / b_bias=0 / direct=3 / weightb=1 / open_gop=0 / weightp=2 / keyint=240 / keyint_min=24 / scenecut=40 / intra_refresh=0 / rc_lookahead=60 / rc=crf / mbtree=1 / crf=20.0 / qcomp=0.60 / qpmin=0 / qpmax=69 / qpstep=4 / vbv_maxrate=62500 / vbv_bufsize=78125 / crf_max=0.0 / nal_hrd=none / filler=0 / ip_ratio=1.40 / aq=1:1.00
Language                                 : English
Default                                  : Yes
Forced                                   : No
Color range                              : Limited
Color primaries                          : BT.709
Transfer characteristics                 : BT.709
Matrix coefficients                      : BT.709
Statistics Tags Issue                    : mkvmerge v15.0.0 ('Duel with the Devil') 64-bit 2018-11-07 22:57:11 / mkvmerge v15.0.0 ('Duel with the Devil') 64-bit 2018-11-07 22:57:11 / UTC 2018-11-05T07:29:41Z
FromStats_BitRate                        : 7980232
FromStats_Duration                       : 01:23:21.997000000
FromStats_FrameCount                     : 119928
FromStats_StreamSize                     : 4989637078

Audio #1
ID                                       : 2
Format                                   : DTS
Format/Info                              : Digital Theater Systems
Mode                                     : 16
Format settings, Endianness              : Big
Codec ID                                 : A_DTS
Duration                                 : 1 h 23 min
Bit rate mode                            : Constant
Bit rate                                 : 768 kb/s
Channel(s)                               : 6 channels
Channel positions                        : Front: L C R, Side: L R, LFE
Sampling rate                            : 48.0 kHz
Frame rate                               : 93.750 FPS (512 SPF)
Bit depth                                : 24 bits
Compression mode                         : Lossy
Stream size                              : 458 MiB (7%)
Language                                 : Spanish
Default                                  : Yes
Forced                                   : No
Statistics Tags Issue                    : mkvmerge v15.0.0 ('Duel with the Devil') 64-bit 2018-11-07 22:57:11 / mkvmerge v15.0.0 ('Duel with the Devil') 64-bit 2018-11-07 22:57:11 / UTC 2018-11-05T07:29:41Z
FromStats_BitRate                        : 767999
FromStats_Duration                       : 01:23:21.995000000
FromStats_FrameCount                     : 468937
FromStats_StreamSize                     : 480191488

Audio #2
ID                                       : 3
Format                                   : DTS
Format/Info                              : Digital Theater Systems
Mode                                     : 16
Format settings, Endianness              : Big
Codec ID                                 : A_DTS
Duration                                 : 1 h 23 min
Bit rate mode                            : Constant
Bit rate                                 : 1 509 kb/s
Channel(s)                               : 6 channels
Channel positions                        : Front: L C R, Side: L R, LFE
Sampling rate                            : 48.0 kHz
Frame rate                               : 93.750 FPS (512 SPF)
Bit depth                                : 24 bits
Compression mode                         : Lossy
Stream size                              : 900 MiB (15%)
Language                                 : English
Default                                  : No
Forced                                   : No
Statistics Tags Issue                    : mkvmerge v15.0.0 ('Duel with the Devil') 64-bit 2018-11-07 22:57:11 / mkvmerge v15.0.0 ('Duel with the Devil') 64-bit 2018-11-07 22:57:11 / UTC 2018-11-05T07:29:41Z
FromStats_BitRate                        : 1508999
FromStats_Duration                       : 01:23:21.995000000
FromStats_FrameCount                     : 468937
FromStats_StreamSize                     : 943501244

Text #1
ID                                       : 4
Format                                   : PGS
Muxing mode                              : zlib
Codec ID                                 : S_HDMV/PGS
Codec ID/Info                            : Picture based subtitle format used on BDs/HD-DVDs
Language                                 : English
Default                                  : No
Forced                                   : No
Statistics Tags Issue                    : mkvmerge v15.0.0 ('Duel with the Devil') 64-bit 2018-11-07 22:57:11 / mkvmerge v15.0.0 ('Duel with the Devil') 64-bit 2018-11-07 22:57:11 / UTC 2018-11-05T07:29:41Z
FromStats_BitRate                        : 56445
FromStats_Duration                       : 01:18:58.484000000
FromStats_FrameCount                     : 2577
FromStats_StreamSize                     : 33433019

Text #2
ID                                       : 5
Format                                   : PGS
Muxing mode                              : zlib
Codec ID                                 : S_HDMV/PGS
Codec ID/Info                            : Picture based subtitle format used on BDs/HD-DVDs
Language                                 : Spanish
Default                                  : No
Forced                                   : No
Statistics Tags Issue                    : mkvmerge v15.0.0 ('Duel with the Devil') 64-bit 2018-11-07 22:57:11 / mkvmerge v15.0.0 ('Duel with the Devil') 64-bit 2018-11-07 22:57:11 / UTC 2018-11-05T07:29:41Z
FromStats_BitRate                        : 40021
FromStats_Duration                       : 01:22:03.501000000
FromStats_FrameCount                     : 2526
FromStats_StreamSize                     : 24630993

Text #3
ID                                       : 6
Format                                   : PGS
Muxing mode                              : zlib
Codec ID                                 : S_HDMV/PGS
Codec ID/Info                            : Picture based subtitle format used on BDs/HD-DVDs
Title                                    : Forzados
Language                                 : Spanish
Default                                  : Yes
Forced                                   : Yes
Statistics Tags Issue                    : mkvmerge v15.0.0 ('Duel with the Devil') 64-bit 2018-11-07 22:57:11 / mkvmerge v15.0.0 ('Duel with the Devil') 64-bit 2018-11-07 22:57:11 / UTC 2018-11-05T07:29:41Z
FromStats_BitRate                        : 226
FromStats_Duration                       : 01:19:59.920000000
FromStats_FrameCount                     : 14
FromStats_StreamSize                     : 135998

Menu
00:00:00.000                             : :Chapter 1
00:03:16.988                             : :Chapter 2
00:08:26.589                             : :Chapter 3
00:11:20.096                             : :Chapter 4
00:17:45.690                             : :Chapter 5
00:20:42.992                             : :Chapter 6
00:24:53.492                             : :Chapter 7
00:29:05.535                             : :Chapter 8
00:33:13.241                             : :Chapter 9
00:36:04.037                             : :Chapter 10
00:42:42.185                             : :Chapter 11
00:48:26.070                             : :Chapter 12
00:56:06.864                             : :Chapter 13
00:58:58.660                             : :Chapter 14
01:04:57.936                             : :Chapter 15
01:07:44.978                             : :Chapter 16
01:13:33.826                             : :Chapter 17
01:18:10.728                             : :Chapter 18

 

Download Links

CONTRASEÑA PARA DESCOMPRIMIR

APORTES NUEVOS

cinemaniahdd.com

APORTES VIEJOS

CinemaniaHD.org

COMPRA O RENUEVA TU PREMIUM DE UPLOADED DESDE EL SIGUIENTE LINK:

http://ul.to/ref/9821430

SI GUSTAS PUEDES SEGUIRNOS EN LAS REDES SOCIALES

Facebook

Twitter

Post Relacionados