Asesinato en el Expreso de Oriente (2017) 4K HDR Latino

Durante un viaje en el legendario tren Orient Express, el detective belga Hercules Poirot investiga un asesinato cometido en el trayecto, y a resultas del cual todos los pasajeros del tren son sospechosos del mismo.



Titulo original Murder on the Orient Express
Audio Español Latino AC3 5.1 BLURAY - Ingles AC3 5.1 BLURAY
Calidad: 4K HDR Resolucion: 3840x1606p Formato: MKV
Encoder: Dracarys Peso: 12.1 GiB Duracion: 1 h 53 min
Subtitulos: Español Latino PGS - Ingles PGS
  • No hay video embed

Format : Matroska
Format version : Version 4 / Version 2
File size: 12.1 GiB
Duration : 1 h 53 min
Overall bit rate : 15.2 Mb/s
Movie name : CinemaniaHDD.com
Encoded date : UTC 2018-03-02 02:43:14
Writing application: mkvmerge v15.0.0 ('Duel with the Devil') 64-bit
Writing library: libebml v1.3.5 + libmatroska v1.4.5

Video
ID : 1
Format : HEVC
Format/Info: High Efficiency Video Coding
Format profile : Main 10@L5.1@High
Codec ID : V_MPEGH/ISO/HEVC
Duration : 1 h 53 min
Bit rate : 14.1 Mb/s
Width: 3 840 pixels
Height : 1 606 pixels
Display aspect ratio : 2.40:1
Frame rate mode: Constant
Frame rate : 23.976 (24000/1001) FPS
Color space: YUV
Chroma subsampling : 4:2:0 (Type 2)
Bit depth: 10 bits
Bits/(Pixel*Frame) : 0.095
Stream size: 11.2 GiB (93%)
Title: Asesinato en el Expreso de Oriente (2017) 4K HDR Latino
Writing library: x265 2.6+37-1949157705ce:[Windows][GCC 6.3.0][64 bit] 10bit
Encoding settings: cpuid=1173503 / frame-threads=4 / numa-pools=16 / wpp / no-pmode / no-pme / no-psnr / no-ssim / log-level=2 / input-csp=1 / input-res=3840x1606 / interlace=0 / total-frames=163899 / level-idc=51 / high-tier=1 / uhd-bd=0 / ref=4 / no-allow-non-conformance / repeat-headers / annexb / aud / hrd / info / hash=0 / no-temporal-layers / no-open-gop / min-keyint=24 / keyint=240 / gop-lookahead=0 / bframes=4 / b-adapt=2 / b-pyramid / bframe-bias=0 / rc-lookahead=25 / lookahead-slices=4 / scenecut=40 / radl=0 / no-intra-refresh / ctu=64 / min-cu-size=8 / rect / no-amp / max-tu-size=32 / tu-inter-depth=1 / tu-intra-depth=1 / limit-tu=0 / rdoq-level=2 / dynamic-rd=0.00 / no-ssim-rd / signhide / no-tskip / nr-intra=0 / nr-inter=0 / no-constrained-intra / no-strong-intra-smoothing / max-merge=3 / limit-refs=3 / limit-modes / me=3 / subme=3 / merange=57 / temporal-mvp / weightp / no-weightb / no-analyze-src-pics / deblock=-3:-3 / no-sao / no-sao-non-deblock / rd=4 / no-early-skip / rskip / no-fast-intra / no-tskip-fast / no-cu-lossless / no-b-intra / no-splitrd-skip / rdpenalty=0 / psy-rd=2.00 / psy-rdoq=1.00 / no-rd-refine / no-lossless / cbqpoffs=0 / crqpoffs=0 / rc=crf / crf=17.0 / qcomp=0.60 / qpstep=4 / stats-write=0 / stats-read=0 / vbv-maxrate=160000 / vbv-bufsize=160000 / vbv-init=0.9 / crf-max=0.0 / crf-min=0.0 / ipratio=1.40 / pbratio=1.30 / aq-mode=1 / aq-strength=1.00 / cutree / zone-count=0 / no-strict-cbr / qg-size=32 / no-rc-grain / qpmax=69 / qpmin=0 / no-const-vbv / sar=1 / overscan=0 / videoformat=5 / range=0 / colorprim=9 / transfer=16 / colormatrix=9 / chromaloc=1 / chromaloc-top=2 / chromaloc-bottom=2 / display-window=0 / master-display=G(13250,34500)B(7500,3000)R(34000,16000)WP(15635,16450)L(10000000,50) / max-cll=0,0 / min-luma=0 / max-luma=1023 / log2-max-poc-lsb=8 / vui-timing-info / vui-hrd-info / slices=1 / opt-qp-pps / opt-ref-list-length-pps / no-multi-pass-opt-rps / scenecut-bias=0.05 / no-opt-cu-delta-qp / no-aq-motion / hdr / hdr-opt / no-dhdr10-opt / analysis-reuse-level=5 / scale-factor=0 / refine-intra=0 / refine-inter=0 / refine-mv=0 / no-limit-sao / ctu-info=0 / no-lowpass-dct / refine-mv-type=0 / copy-pic=1
Language : English
Default: Yes
Forced : No
Color range: Limited
Color primaries: BT.2020
Transfer characteristics : PQ
Matrix coefficients: BT.2020 non-constant
Mastering display color primaries: R: x=0.680000 y=0.320000, G: x=0.265000 y=0.690000, B: x=0.150000 y=0.060000, White point: x=0.312700 y=0.329000
Mastering display luminance: min: 0.0050 cd/m2, max: 1000.0000 cd/m2

Audio #1
ID : 2
Format : AC-3
Format/Info: Audio Coding 3
Format settings, Endianness: Big
Codec ID : A_AC3
Duration : 1 h 53 min
Bit rate mode: Constant
Bit rate : 448 kb/s
Channel(s) : 6 channels
Channel positions: Front: L C R, Side: L R, LFE
Sampling rate: 48.0 kHz
Frame rate : 31.250 FPS (1536 SPF)
Bit depth: 16 bits
Compression mode : Lossy
Stream size: 365 MiB (3%)
Language : Spanish
Service kind : Complete Main
Default: Yes
Forced : No

Audio #2
ID : 3
Format : AC-3
Format/Info: Audio Coding 3
Format settings, Endianness: Big
Codec ID : A_AC3
Duration : 1 h 53 min
Bit rate mode: Constant
Bit rate : 640 kb/s
Channel(s) : 6 channels
Channel positions: Front: L C R, Side: L R, LFE
Sampling rate: 48.0 kHz
Frame rate : 31.250 FPS (1536 SPF)
Bit depth: 16 bits
Compression mode : Lossy
Stream size: 522 MiB (4%)
Language : English
Service kind : Complete Main
Default: No
Forced : No

Text #1
ID : 4
Format : UTF-8
Codec ID : S_TEXT/UTF8
Codec ID/Info: UTF-8 Plain Text
Duration : 1 h 50 min
Bit rate : 0 b/s
Count of elements: 26
Stream size: 643 Bytes (0%)
Title: Forzados
Language : Spanish
Default: Yes
Forced : Yes

Text #2
ID : 5
Format : PGS
Muxing mode: zlib
Codec ID : S_HDMV/PGS
Codec ID/Info: Picture based subtitle format used on BDs/HD-DVDs
Duration : 1 h 45 min
Bit rate : 50.0 kb/s
Count of elements: 3958
Stream size: 37.9 MiB (0%)
Language : English
Default: No
Forced : No

Text #3
ID : 6
Format : PGS
Muxing mode: zlib
Codec ID : S_HDMV/PGS
Codec ID/Info: Picture based subtitle format used on BDs/HD-DVDs
Duration : 1 h 53 min
Bit rate : 41.5 kb/s
Count of elements: 3138
Stream size: 33.6 MiB (0%)
Language : Spanish
Default: No
Forced : No

Menu
00:00:00.000 : en:Chapter 01
00:03:06.060 : en:Chapter 02
00:06:42.193 : en:Chapter 03
00:11:44.745 : en:Chapter 04
00:18:26.188 : en:Chapter 05
00:24:53.658 : en:Chapter 06
00:33:14.158 : en:Chapter 07
00:37:47.515 : en:Chapter 08
00:43:16.510 : en:Chapter 09
00:46:24.865 : en:Chapter 10
00:51:23.580 : en:Chapter 11
00:55:52.015 : en:Chapter 12
01:00:03.182 : en:Chapter 13
01:05:38.893 : en:Chapter 14
01:10:39.777 : en:Chapter 15
01:14:17.578 : en:Chapter 16
01:18:05.055 : en:Chapter 17
01:21:12.284 : en:Chapter 18
01:24:39.365 : en:Chapter 19
01:28:37.854 : en:Chapter 20
01:32:28.376 : en:Chapter 21
01:37:04.401 : en:Chapter 22
01:40:30.024 : en:Chapter 23
01:46:49.653 : en:Chapter 24

Download Links

CONTRASEÑA PARA DESCOMPRIMIR

APORTES NUEVOS

cinemaniahdd.com

APORTES VIEJOS

CinemaniaHD.org

COMPRA O RENUEVA TU PREMIUM DE UPLOADED DESDE EL SIGUIENTE LINK:

http://ul.to/ref/9821430

SI GUSTAS PUEDES SEGUIRNOS EN LAS REDES SOCIALES

Facebook

Twitter

Post Relacionados