Atómica (Atomic Blonde) (2017) 4K HDR Latino

Año 1989, el muro de Berlín está a punto de caer. Un agente del MI6 encubierto aparece muerto y la espía Lorraine Broughton (Charlize Theron) debe encontrar por todos los medios una lista que el agente estaba intentando hacer llegar a Occidente, y en la que figuran los nombres de todos los agentes encubiertos que trabajan en Berlín oriental. Lorraine no se detendrá ante nada para conseguir dar con esa lista, enfrentándose a varios asesinos y sumergiéndose en un mundo en el que nadie parece ser quien dice ser.



Titulo original Atomic Blonde
Audio Español Latino DTS 5.1 BLURAY - Ingles DTS 5.1 BLURAY
Calidad: 4K HDR Resolucion: 3840x1608p Formato: MKV
Encoder: Dracarys Peso: 13.1 GiB Duracion: 1 h 54 min
Subtitulos: Español Latino PGS - Ingles PGS
  • No hay video embed

Format                                   : Matroska
Format version                           : Version 4 / Version 2
File size                                : 13.1 GiB
Duration                                 : 1 h 54 min
Overall bit rate                         : 16.3 Mb/s
Movie name                               : CinemaniaHDD.com
Encoded date                             : UTC 2018-03-09 00:31:34
Writing application                      : mkvmerge v15.0.0 ('Duel with the Devil') 64-bit
Writing library                          : libebml v1.3.5 + libmatroska v1.4.5

Video
ID                                       : 1
Format                                   : HEVC
Format/Info                              : High Efficiency Video Coding
Format profile                           : Main 10@L5.1@High
Codec ID                                 : V_MPEGH/ISO/HEVC
Duration                                 : 1 h 54 min
Bit rate                                 : 14.0 Mb/s
Width                                    : 3 840 pixels
Height                                   : 1 608 pixels
Display aspect ratio                     : 2.40:1
Frame rate mode                          : Constant
Frame rate                               : 23.976 (24000/1001) FPS
Color space                              : YUV
Chroma subsampling                       : 4:2:0 (Type 2)
Bit depth                                : 10 bits
Bits/(Pixel*Frame)                       : 0.095
Stream size                              : 11.2 GiB (86%)
Title                                    : Atómica (Atomic Blonde) (2017) 4K HDR Latino
Writing library                          : x265 2.5+58-06979c042350:[Windows][GCC 6.2.1][64 bit] 10bit
Encoding settings                        : cpuid=1050111 / frame-threads=4 / numa-pools=15,15 / wpp / no-pmode / no-pme / no-psnr / no-ssim / log-level=2 / input-csp=1 / input-res=3840x1608 / interlace=0 / total-frames=165084 / level-idc=51 / high-tier=1 / uhd-bd=0 / ref=4 / no-allow-non-conformance / repeat-headers / annexb / aud / hrd / info / hash=0 / no-temporal-layers / no-open-gop / min-keyint=1 / keyint=24 / bframes=4 / b-adapt=2 / b-pyramid / bframe-bias=0 / rc-lookahead=25 / lookahead-slices=4 / scenecut=40 / no-intra-refresh / ctu=64 / min-cu-size=8 / rect / no-amp / max-tu-size=32 / tu-inter-depth=1 / tu-intra-depth=1 / limit-tu=0 / rdoq-level=2 / dynamic-rd=0.00 / no-ssim-rd / signhide / no-tskip / nr-intra=0 / nr-inter=0 / no-constrained-intra / no-strong-intra-smoothing / max-merge=3 / limit-refs=3 / limit-modes / me=3 / subme=3 / merange=57 / temporal-mvp / weightp / no-weightb / no-analyze-src-pics / deblock=-3:-3 / no-sao / no-sao-non-deblock / rd=4 / no-early-skip / rskip / no-fast-intra / no-tskip-fast / no-cu-lossless / no-b-intra / no-splitrd-skip / rdpenalty=0 / psy-rd=2.00 / psy-rdoq=1.00 / no-rd-refine / analysis-reuse-mode=0 / no-lossless / cbqpoffs=0 / crqpoffs=0 / rc=crf / crf=17.0 / qcomp=0.60 / qpstep=4 / stats-write=0 / stats-read=0 / vbv-maxrate=160000 / vbv-bufsize=160000 / vbv-init=0.9 / crf-max=0.0 / crf-min=0.0 / ipratio=1.40 / pbratio=1.30 / aq-mode=1 / aq-strength=1.00 / cutree / zone-count=0 / no-strict-cbr / qg-size=32 / no-rc-grain / qpmax=69 / qpmin=0 / no-const-vbv / sar=1 / overscan=0 / videoformat=5 / range=0 / colorprim=9 / transfer=16 / colormatrix=9 / chromaloc=1 / chromaloc-top=2 / chromaloc-bottom=2 / display-window=0 / master-display=G(13250,34500)B(7500,3000)R(34000,16000)WP(15635,16450)L(10000000,50) / max-cll=600,487 / min-luma=0 / max-luma=1023 / log2-max-poc-lsb=8 / vui-timing-info / vui-hrd-info / slices=1 / no-opt-qp-pps / no-opt-ref-list-length-pps / no-multi-pass-opt-rps / scenecut-bias=0.05 / no-opt-cu-delta-qp / no-aq-motion / hdr / hdr-opt / no-dhdr10-opt / analysis-reuse-level=5 / scale-factor=0 / refine-intra=0 / refine-inter=0 / refine-mv=0 / no-limit-sao / ctu-info=0 / no-lowpass-dct / refine-mv-type=0 / copy-pic=1
Language                                 : English
Default                                  : Yes
Forced                                   : No
Color range                              : Limited
Color primaries                          : BT.2020
Transfer characteristics                 : PQ
Matrix coefficients                      : BT.2020 non-constant
Mastering display color primaries        : R: x=0.680000 y=0.320000, G: x=0.265000 y=0.690000, B: x=0.150000 y=0.060000, White point: x=0.312700 y=0.329000
Mastering display luminance              : min: 0.0050 cd/m2, max: 1000.0000 cd/m2
Maximum Content Light Level              : 600 cd/m2
Maximum Frame-Average Light Level        : 487 cd/m2

Audio #1
ID                                       : 2
Format                                   : DTS
Format/Info                              : Digital Theater Systems
Mode                                     : 16
Format settings, Endianness              : Big
Codec ID                                 : A_DTS
Duration                                 : 1 h 54 min
Bit rate mode                            : Constant
Bit rate                                 : 768 kb/s
Channel(s)                               : 6 channels
Channel positions                        : Front: L C R, Side: L R, LFE
Sampling rate                            : 48.0 kHz
Frame rate                               : 93.750 FPS (512 SPF)
Bit depth                                : 24 bits
Compression mode                         : Lossy
Delay relative to video                  : 1 s 0 ms
Stream size                              : 630 MiB (5%)
Title                                    : Latino
Language                                 : Spanish
Default                                  : Yes
Forced                                   : No

Audio #2
ID                                       : 3
Format                                   : DTS
Format/Info                              : Digital Theater Systems
Mode                                     : 16
Format settings, Endianness              : Big
Codec ID                                 : A_DTS
Duration                                 : 1 h 54 min
Bit rate mode                            : Constant
Bit rate                                 : 1 509 kb/s
Channel(s)                               : 6 channels
Channel positions                        : Front: L C R, Side: L R, LFE
Sampling rate                            : 48.0 kHz
Frame rate                               : 93.750 FPS (512 SPF)
Bit depth                                : 24 bits
Compression mode                         : Lossy
Delay relative to video                  : 1 s 0 ms
Stream size                              : 1.21 GiB (9%)
Title                                    : English
Language                                 : English
Default                                  : No
Forced                                   : No

Text #1
ID                                       : 4
Format                                   : UTF-8
Codec ID                                 : S_TEXT/UTF8
Codec ID/Info                            : UTF-8 Plain Text
Duration                                 : 1 h 53 min
Bit rate                                 : 1 b/s
Count of elements                        : 39
Stream size                              : 934 Bytes (0%)
Title                                    : Forzados Latino
Language                                 : Spanish
Default                                  : Yes
Forced                                   : No

Text #2
ID                                       : 5
Format                                   : UTF-8
Codec ID                                 : S_TEXT/UTF8
Codec ID/Info                            : UTF-8 Plain Text
Duration                                 : 1 h 53 min
Bit rate                                 : 37 b/s
Count of elements                        : 927
Stream size                              : 31.3 KiB (0%)
Title                                    : Latino
Language                                 : Spanish
Default                                  : No
Forced                                   : No

Text #3
ID                                       : 6
Format                                   : UTF-8
Codec ID                                 : S_TEXT/UTF8
Codec ID/Info                            : UTF-8 Plain Text
Duration                                 : 1 h 47 min
Bit rate                                 : 45 b/s
Count of elements                        : 1205
Stream size                              : 35.9 KiB (0%)
Title                                    : English SDH
Language                                 : English
Default                                  : No
Forced                                   : No

Text #4
ID                                       : 7
Format                                   : PGS
Muxing mode                              : zlib
Codec ID                                 : S_HDMV/PGS
Codec ID/Info                            : Picture based subtitle format used on BDs/HD-DVDs
Duration                                 : 1 h 53 min
Bit rate                                 : 765 b/s
Count of elements                        : 78
Stream size                              : 638 KiB (0%)
Title                                    : Forzados
Language                                 : Spanish
Default                                  : No
Forced                                   : No

Text #5
ID                                       : 8
Format                                   : PGS
Muxing mode                              : zlib
Codec ID                                 : S_HDMV/PGS
Codec ID/Info                            : Picture based subtitle format used on BDs/HD-DVDs
Duration                                 : 1 h 53 min
Bit rate                                 : 23.3 kb/s
Count of elements                        : 1856
Stream size                              : 19.0 MiB (0%)
Title                                    : latino
Language                                 : Spanish
Default                                  : No
Forced                                   : No

Text #6
ID                                       : 9
Format                                   : PGS
Muxing mode                              : zlib
Codec ID                                 : S_HDMV/PGS
Codec ID/Info                            : Picture based subtitle format used on BDs/HD-DVDs
Duration                                 : 1 h 47 min
Bit rate                                 : 31.5 kb/s
Count of elements                        : 2411
Stream size                              : 24.3 MiB (0%)
Title                                    : English
Language                                 : English
Default                                  : No
Forced                                   : No

Menu
00:00:00.000                             : :Chapter 01
00:05:00.000                             : :Chapter 02
00:10:00.000                             : :Chapter 03
00:15:00.000                             : :Chapter 04
00:20:00.000                             : :Chapter 05
00:25:00.000                             : :Chapter 06
00:30:00.000                             : :Chapter 07
00:35:00.000                             : :Chapter 08
00:40:00.000                             : :Chapter 09
00:45:00.000                             : :Chapter 10
00:50:00.000                             : :Chapter 11
00:55:00.000                             : :Chapter 12
01:00:00.000                             : :Chapter 13
01:05:00.000                             : :Chapter 14
01:10:00.000                             : :Chapter 15
01:15:00.000                             : :Chapter 16
01:20:00.000                             : :Chapter 17
01:25:00.000                             : :Chapter 18
01:30:00.000                             : :Chapter 19
01:35:00.000                             : :Chapter 20
01:40:00.000                             : :Chapter 21
01:45:00.000                             : :Chapter 22
01:50:00.000                             : :Chapter 23

Download Links

CONTRASEÑA PARA DESCOMPRIMIR

APORTES NUEVOS

cinemaniahdd.com

APORTES VIEJOS

CinemaniaHD.org

COMPRA O RENUEVA TU PREMIUM DE UPLOADED DESDE EL SIGUIENTE LINK:

http://ul.to/ref/9821430

SI GUSTAS PUEDES SEGUIRNOS EN LAS REDES SOCIALES

Facebook

Twitter

Post Relacionados