Big Eyes (2014) Full 1080p Latino

‘Big Eyes’ está basada en el caso real de Margaret y Walter Keane. La historia gira alrededor del enorme éxito, durante los años 50 y 60 del siglo pasado, de las reproducciones de los cuadros de niños con grandes ojos, creados por ella pero firmados en su momento por su marido, Walter, supuestamente porque él tenía una gran facilidad para el marketing, consiguiendo así ampliar la popularidad de la obra de su esposa.



Titulo original Big Eyes
Audio Español Latino AC3 5.1 BLURAY - Ingles DTS 5.1 BLURAY
Calidad: Full 1080p Resolucion: 1920x1080p Formato: MKV
Encoder: Dracarys Peso: 5.14 GiB Duracion: 1h 46m
Subtitulos: Español Latino PGS - Ingles PGS
  • No hay video embed

Format                                   : Matroska
Format version                           : Version 4 / Version 2
File size                                : 5.14 GiB
Duration                                 : 1 h 45 min
Overall bit rate                         : 6 963 kb/s
Movie name                               : CinemaniaHDD.net
Encoded date                             : UTC 2018-10-30 23:51:57 / UTC 2018-10-25T17:43:52Z
Writing application                      : mkvmerge v15.0.0 ('Duel with the Devil') 64-bit
Writing library                          : libebml v1.3.5 + libmatroska v1.4.5 / Lavf57.7.2

Video
ID                                       : 1
Format                                   : AVC
Format/Info                              : Advanced Video Codec
Format profile                           : High@L4.1
Format settings                          : CABAC / 4 Ref Frames
Format settings, CABAC                   : Yes
Format settings, RefFrames               : 4 frames
Codec ID                                 : V_MPEG4/ISO/AVC
Duration                                 : 1 h 45 min
Bit rate                                 : 4 868 kb/s
Width                                    : 1 920 pixels
Height                                   : 1 080 pixels
Display aspect ratio                     : 16:9
Frame rate mode                          : Constant
Frame rate                               : 23.976 (24000/1001) FPS
Color space                              : YUV
Chroma subsampling                       : 4:2:0
Bit depth                                : 8 bits
Scan type                                : Progressive
Bits/(Pixel*Frame)                       : 0.098
Stream size                              : 3.60 GiB (70%)
Writing library                          : x264 core 148 r2708 86b7198
Encoding settings                        : cabac=1 / ref=4 / deblock=1:0:0 / analyse=0x3:0x133 / me=esa / subme=10 / psy=1 / psy_rd=1.00:0.00 / mixed_ref=1 / me_range=24 / chroma_me=1 / trellis=2 / 8x8dct=1 / cqm=0 / deadzone=21,11 / fast_pskip=1 / chroma_qp_offset=-2 / threads=34 / lookahead_threads=5 / sliced_threads=0 / nr=0 / decimate=1 / interlaced=0 / bluray_compat=0 / constrained_intra=0 / bframes=8 / b_pyramid=2 / b_adapt=2 / b_bias=0 / direct=3 / weightb=1 / open_gop=0 / weightp=2 / keyint=240 / keyint_min=24 / scenecut=40 / intra_refresh=0 / rc_lookahead=60 / rc=crf / mbtree=1 / crf=20.0 / qcomp=0.60 / qpmin=0 / qpmax=69 / qpstep=4 / vbv_maxrate=62500 / vbv_bufsize=78125 / crf_max=0.0 / nal_hrd=none / filler=0 / ip_ratio=1.40 / aq=1:1.00
Language                                 : English
Default                                  : Yes
Forced                                   : No
Color range                              : Limited
Color primaries                          : BT.709
Transfer characteristics                 : BT.709
Matrix coefficients                      : BT.709
Statistics Tags Issue                    : mkvmerge v15.0.0 ('Duel with the Devil') 64-bit 2018-10-30 23:51:57 / mkvmerge v15.0.0 ('Duel with the Devil') 64-bit 2018-10-30 23:51:57 / UTC 2018-10-25T17:43:52Z
FromStats_BitRate                        : 4975913
FromStats_Duration                       : 01:45:44.297000000
FromStats_FrameCount                     : 152111
FromStats_StreamSize                     : 3946084452

Audio #1
ID                                       : 2
Format                                   : AC-3
Format/Info                              : Audio Coding 3
Format settings, Endianness              : Big
Codec ID                                 : A_AC3
Duration                                 : 1 h 45 min
Bit rate mode                            : Constant
Bit rate                                 : 448 kb/s
Channel(s)                               : 6 channels
Channel positions                        : Front: L C R, Side: L R, LFE
Sampling rate                            : 48.0 kHz
Frame rate                               : 31.250 FPS (1536 SPF)
Bit depth                                : 16 bits
Compression mode                         : Lossy
Delay relative to video                  : 167 ms
Stream size                              : 339 MiB (6%)
Language                                 : Spanish
Service kind                             : Complete Main
Default                                  : Yes
Forced                                   : No
Statistics Tags Issue                    : mkvmerge v15.0.0 ('Duel with the Devil') 64-bit 2018-10-30 23:51:57 / mkvmerge v15.0.0 ('Duel with the Devil') 64-bit 2018-10-30 23:51:57 / UTC 2018-10-25T17:43:52Z
FromStats_BitRate                        : 448000
FromStats_Duration                       : 01:45:44.192000000
FromStats_FrameCount                     : 198256
FromStats_StreamSize                     : 355274752

Audio #2
ID                                       : 3
Format                                   : DTS
Format/Info                              : Digital Theater Systems
Mode                                     : 16
Format settings, Endianness              : Big
Codec ID                                 : A_DTS
Duration                                 : 1 h 45 min
Bit rate mode                            : Constant
Bit rate                                 : 1 509 kb/s
Channel(s)                               : 6 channels
Channel positions                        : Front: L C R, Side: L R, LFE
Sampling rate                            : 48.0 kHz
Frame rate                               : 93.750 FPS (512 SPF)
Bit depth                                : 24 bits
Compression mode                         : Lossy
Stream size                              : 1.11 GiB (22%)
Language                                 : English
Default                                  : No
Forced                                   : No
Statistics Tags Issue                    : mkvmerge v15.0.0 ('Duel with the Devil') 64-bit 2018-10-30 23:51:57 / mkvmerge v15.0.0 ('Duel with the Devil') 64-bit 2018-10-30 23:51:57 / UTC 2018-10-25T17:43:52Z
FromStats_BitRate                        : 1508999
FromStats_Duration                       : 01:45:44.342000000
FromStats_FrameCount                     : 594782
FromStats_StreamSize                     : 1196701384

Text #1
ID                                       : 4
Format                                   : PGS
Muxing mode                              : zlib
Codec ID                                 : S_HDMV/PGS
Codec ID/Info                            : Picture based subtitle format used on BDs/HD-DVDs
Language                                 : English
Default                                  : No
Forced                                   : No
Statistics Tags Issue                    : mkvmerge v15.0.0 ('Duel with the Devil') 64-bit 2018-10-30 23:51:57 / mkvmerge v15.0.0 ('Duel with the Devil') 64-bit 2018-10-30 23:51:57 / UTC 2018-10-25T17:43:52Z
FromStats_BitRate                        : 40137
FromStats_Duration                       : 01:37:50.198000000
FromStats_FrameCount                     : 2550
FromStats_StreamSize                     : 29451601

Text #2
ID                                       : 5
Format                                   : PGS
Muxing mode                              : zlib
Codec ID                                 : S_HDMV/PGS
Codec ID/Info                            : Picture based subtitle format used on BDs/HD-DVDs
Language                                 : Spanish
Default                                  : No
Forced                                   : No
Statistics Tags Issue                    : mkvmerge v15.0.0 ('Duel with the Devil') 64-bit 2018-10-30 23:51:57 / mkvmerge v15.0.0 ('Duel with the Devil') 64-bit 2018-10-30 23:51:57 / UTC 2018-10-25T17:43:52Z
FromStats_BitRate                        : 37509
FromStats_Duration                       : 01:39:17.243000000
FromStats_FrameCount                     : 2436
FromStats_StreamSize                     : 27931693

Text #3
ID                                       : 6
Format                                   : PGS
Muxing mode                              : zlib
Codec ID                                 : S_HDMV/PGS
Codec ID/Info                            : Picture based subtitle format used on BDs/HD-DVDs
Title                                    : Forzados
Language                                 : Spanish
Default                                  : Yes
Forced                                   : Yes
Statistics Tags Issue                    : mkvmerge v15.0.0 ('Duel with the Devil') 64-bit 2018-10-30 23:51:57 / mkvmerge v15.0.0 ('Duel with the Devil') 64-bit 2018-10-30 23:51:57 / UTC 2018-10-25T17:43:52Z
FromStats_BitRate                        : 213
FromStats_Duration                       : 01:20:36.832000000
FromStats_FrameCount                     : 20
FromStats_StreamSize                     : 128803

Menu
00:00:00.000                             : :Chapter 1
00:06:44.446                             : :Chapter 2
00:14:34.540                             : :Chapter 3
00:21:45.721                             : :Chapter 4
00:27:12.381                             : :Chapter 5
00:35:10.358                             : :Chapter 6
00:40:54.410                             : :Chapter 7
00:46:49.640                             : :Chapter 8
00:52:36.779                             : :Chapter 9
00:58:04.648                             : :Chapter 10
01:03:45.822                             : :Chapter 11
01:10:49.746                             : :Chapter 12
01:17:40.322                             : :Chapter 13
01:26:03.533                             : :Chapter 14
01:32:05.729                             : :Chapter 15
01:39:00.393                             : :Chapter 16

 

Download Links

CONTRASEÑA PARA DESCOMPRIMIR

APORTES NUEVOS

cinemaniahdd.com

APORTES VIEJOS

CinemaniaHD.org

COMPRA O RENUEVA TU PREMIUM DE UPLOADED DESDE EL SIGUIENTE LINK:

http://ul.to/ref/9821430

SI GUSTAS PUEDES SEGUIRNOS EN LAS REDES SOCIALES

Facebook

Twitter

Post Relacionados