Black ’47 (2018) Web-DL 1080p Subtitulado

Descargar Black ’47 (2018) Web-DL 1080p Subtitulado, Mega, Google Drive. En Irlanda durante la Gran Hambruna, un Ranger irlandés que ha estado luchando por el ejército británico en el extranjero abandona su puesto para reunirse con su familia. A pesar de experimentar los horrores de la guerra, se sorprende por la destrucción de su patria por el hambre y la brutalización de su pueblo y su familia.



Titulo original Black '47
Audio Ingles AC3 5.1 iTunes
Calidad: WEBDL Resolucion: 1920x796p Formato: MKV
Encoder: FGT Peso: 3.42 GiB Duracion: 1h 40m
Subtitulos: Español Latino SRT - Ingles SRT
  • No hay video embed

Black 47 (2018) Web-DL 1080p Subtitulado.mkv
Format: Matroska
Format version: Version 4 / Version 2
File size : 3.42 GiB
Duration: 1 h 39 min
Overall bit rate: 4 909 kb/s
Movie name: CinemaniaHDD.Net
Encoded date: UTC 2018-10-25 02:01:18
Writing application : mkvmerge v25.0.0 ('Prog Noir') 64-bit
Writing library : libebml v1.3.6 + libmatroska v1.4.9

Video
ID: 1
Format: AVC
Format/Info : Advanced Video Codec
Format profile: High@L4
Format settings : CABAC / 5 Ref Frames
Format settings, CABAC: Yes
Format settings, RefFrames: 5 frames
Codec ID: V_MPEG4/ISO/AVC
Duration: 1 h 39 min
Bit rate: 4 523 kb/s
Width : 1 920 pixels
Height: 796 pixels
Display aspect ratio: 2.40:1
Frame rate mode : Constant
Frame rate: 24.000 FPS
Color space : YUV
Chroma subsampling: 4:2:0
Bit depth : 8 bits
Scan type : Progressive
Bits/(Pixel*Frame): 0.123
Stream size : 3.15 GiB (92%)
Title : HD1080p [Web-DL]
Language: English
Default : Yes
Forced: No
Color range : Limited
Color primaries : BT.709
Transfer characteristics: BT.709
Matrix coefficients : BT.709

Audio
ID: 2
Format: AC-3
Format/Info : Audio Coding 3
Format settings, Endianness : Big
Codec ID: A_AC3
Duration: 1 h 39 min
Bit rate mode : Constant
Bit rate: 384 kb/s
Channel(s): 6 channels
Channel positions : Front: L C R, Side: L R, LFE
Sampling rate : 48.0 kHz
Frame rate: 31.250 FPS (1536 SPF)
Bit depth : 16 bits
Compression mode: Lossy
Delay relative to video : -42 ms
Stream size : 274 MiB (8%)
Title : AC3_5.1_Web-DL_Eng
Language: English
Service kind: Complete Main
Default : Yes
Forced: No

Text #1
ID: 3
Format: UTF-8
Codec ID: S_TEXT/UTF8
Codec ID/Info : UTF-8 Plain Text
Duration: 1 h 34 min
Bit rate: 31 b/s
Count of elements : 686
Stream size : 22.2 KiB (0%)
Title : Sub_Esp
Language: Spanish
Default : Yes
Forced: Yes

Text #2
ID: 4
Format: UTF-8
Codec ID: S_TEXT/UTF8
Codec ID/Info : UTF-8 Plain Text
Duration: 1 h 36 min
Bit rate: 27 b/s
Count of elements : 655
Stream size : 19.1 KiB (0%)
Title : Sub_Eng
Language: English
Default : No
Forced: No

Menu
00:00:00.000: en:1
00:12:35.120: en:2
00:22:59.750: en:3
00:37:13.410: en:4
00:52:46.660: en:5
01:01:12.410: en:6
01:11:50.540: en:7
01:19:44.370: en:8
01:35:46.000: en:9

Download Links

CONTRASEÑA PARA DESCOMPRIMIR

APORTES NUEVOS

cinemaniahdd.com

APORTES VIEJOS

CinemaniaHD.org

COMPRA O RENUEVA TU PREMIUM DE UPLOADED DESDE EL SIGUIENTE LINK:

http://ul.to/ref/9821430

SI GUSTAS PUEDES SEGUIRNOS EN LAS REDES SOCIALES

Facebook

Twitter

Post Relacionados