Blackwood (2018) Web-DL 1080p Latino

Down a Dark Hall [Blackwood] (2017) 1080p Latino. Mega, Google Drive. Kit Gordy contempla Blackwood Hall alzándose sobre negras puertas de hierro y no puede evitar el pensar: este lugar es malvado. La imponente mansión aguijonea el miedo en ella. Pero Kitt se asienta en una rutina, tratando de ignorar los rumores acerca de que esta exclusivísima escuela privada está encantada. Pronto, sus compañeros comenzarán a mostrar extraordinarios y desconocidos talentos. Los bizarros sueños, las voces, las cartas perdidas a familia y amigos, todo ello se ve ensombrecido por la magia que la rodea. Cuando Kit y sus amigos descubran que Blackwood no es lo que parece, tal vez ya sea demasiado tarde



Titulo Original Down a Dark Hall
Año 2018-08-01
Duracion 1h 37m
Director
Reparto , , , , , , , , , , , ,
Productora
Genero
Titulo original Down a Dark Hall
Audio Español Latino AC3 5.1 DVD - Ingles AC3 5.1 iTunes
Calidad: WEBDL Resolucion: 1908x788p Formato: MKV
Encoder: CinefiloCool Peso: 3.67 GiB Duracion: 1h 37m
Subtitulos: Español Latino SRT - Ingles SRT
  • No hay video embed

Down a Dark Hall - Blackwood (2018) Web-DL 1080p Latino.mkv
Format: Matroska
Format version: Version 4 / Version 2
File size : 3.68 GiB
Duration: 1 h 36 min
Overall bit rate: 5 457 kb/s
Movie name: CinemaniaHDD.Net
Encoded date: UTC 2018-10-09 01:03:28
Writing application : mkvmerge v25.0.0 ('Prog Noir') 64-bit
Writing library : libebml v1.3.6 + libmatroska v1.4.9

Video
ID: 1
Format: AVC
Format/Info : Advanced Video Codec
Format profile: High@L4
Format settings : CABAC / 5 Ref Frames
Format settings, CABAC: Yes
Format settings, RefFrames: 5 frames
Codec ID: V_MPEG4/ISO/AVC
Duration: 1 h 36 min
Bit rate: 4 628 kb/s
Width : 1 908 pixels
Height: 788 pixels
Display aspect ratio: 2.40:1
Frame rate mode : Constant
Frame rate: 23.976 (24000/1001) FPS
Color space : YUV
Chroma subsampling: 4:2:0
Bit depth : 8 bits
Scan type : Progressive
Bits/(Pixel*Frame): 0.128
Stream size : 3.12 GiB (85%)
Title : HD1080p [Web-DL]
Language: English
Default : Yes
Forced: No
Color range : Limited
Color primaries : BT.709
Transfer characteristics: BT.709
Matrix coefficients : BT.709

Audio #1
ID: 2
Format: AC-3
Format/Info : Audio Coding 3
Format settings, Endianness : Big
Codec ID: A_AC3
Duration: 1 h 36 min
Bit rate mode : Constant
Bit rate: 448 kb/s
Channel(s): 6 channels
Channel positions : Front: L C R, Side: L R, LFE
Sampling rate : 48.0 kHz
Frame rate: 31.250 FPS (1536 SPF)
Bit depth : 16 bits
Compression mode: Lossy
Delay relative to video : -42 ms
Stream size : 309 MiB (8%)
Title : AC3_5.1_DVD_Esp
Language: Spanish
Service kind: Complete Main
Default : Yes
Forced: No

Audio #2
ID: 3
Format: AC-3
Format/Info : Audio Coding 3
Format settings, Endianness : Big
Codec ID: A_AC3
Duration: 1 h 36 min
Bit rate mode : Constant
Bit rate: 384 kb/s
Channel(s): 6 channels
Channel positions : Front: L C R, Side: L R, LFE
Sampling rate : 48.0 kHz
Frame rate: 31.250 FPS (1536 SPF)
Bit depth : 16 bits
Compression mode: Lossy
Delay relative to video : -42 ms
Stream size : 265 MiB (7%)
Title : AC3_5.1_WebDL_Eng
Language: English
Service kind: Complete Main
Default : No
Forced: No

Text #1
ID: 4
Format: UTF-8
Codec ID: S_TEXT/UTF8
Codec ID/Info : UTF-8 Plain Text
Duration: 1 h 29 min
Bit rate: 47 b/s
Count of elements : 970
Stream size : 31.5 KiB (0%)
Title : Sub_Esp
Language: Spanish
Default : Yes
Forced: No

Text #2
ID: 5
Format: UTF-8
Codec ID: S_TEXT/UTF8
Codec ID/Info : UTF-8 Plain Text
Duration: 1 h 27 min
Bit rate: 44 b/s
Count of elements : 954
Stream size : 28.6 KiB (0%)
Title : Sub_Eng
Language: English
Default : No
Forced: No

Menu
00:00:00.000: en:1
00:07:48.000: en:2
00:17:56.000: en:3
00:27:55.000: en:4
00:36:31.000: en:5
00:46:36.000: en:6
00:55:54.000: en:7
01:04:01.000: en:8
01:16:01.000: en:9
01:29:20.000: en:10

Download Links

CONTRASEÑA PARA DESCOMPRIMIR

APORTES NUEVOS

cinemaniahdd.com

APORTES VIEJOS

CinemaniaHD.org

COMPRA O RENUEVA TU PREMIUM DE UPLOADED DESDE EL SIGUIENTE LINK:

http://ul.to/ref/9821430

SI GUSTAS PUEDES SEGUIRNOS EN LAS REDES SOCIALES

Facebook

Twitter

Post Relacionados