Bomb City (2017) WEB-DL 1080p Subtitulado

Basada en la historia de Brian Deneke, un joven punk de Amarillo, Texas, asesinado en un entorno de aversión cultural hacia él y sus amigos. Un polémico delito de odio que cuestiona la moralidad de la justicia americana, ya que el asesino, un niño “bien”, estrella del equipo de fútbol, solo fue condenado a 10 años de libertad vigilada y una multa de 10 mil dólares.



Titulo Original Bomb City
Año 2017-03-31
Duracion 1h 35m
Director
Reparto , , , , ,
Productora
Genero
Titulo original Bomb City
Audio Ingles AC3 5.1 iTunes
Calidad: 1080p Resolucion: 1904x800 Formato: MKV
Encoder: Lpratto Peso: 3.41 GB Duracion: 1h 35m
Subtitulos: Español Latino SRT
  • No hay video embed

Format: Matroska
Format version: Version 4 / Version 2
File size : 3.42 GiB
Duration: 1 h 38 min
Overall bit rate: 4 971 kb/s
Movie name: CinemaniaHDD.com
Encoded date: UTC 2018-03-15 08:42:53
Writing application : mkvmerge v15.0.0 ('Duel with the Devil') 64-bit
Writing library : libebml v1.3.5 + libmatroska v1.4.5
 
Video
ID: 1
Format: AVC
Format/Info : Advanced Video Codec
Format profile: High@L4
Format settings, CABAC: Yes
Format settings, RefFrames: 5 frames
Codec ID: V_MPEG4/ISO/AVC
Duration: 1 h 38 min
Bit rate: 4 585 kb/s
Width : 1 904 pixels
Height: 800 pixels
Display aspect ratio: 2.40:1
Frame rate mode : Constant
Frame rate: 23.976 (24000/1001) FPS
Color space : YUV
Chroma subsampling: 4:2:0
Bit depth : 8 bits
Scan type : Progressive
Bits/(Pixel*Frame): 0.126
Stream size : 3.15 GiB (92%)
Language: English
Default : Yes
Forced: No
Color range : Limited
Color primaries : BT.709
Transfer characteristics: BT.709
Matrix coefficients : BT.709
 
Audio
ID: 2
Format: AC-3
Format/Info : Audio Coding 3
Format settings, Endianness : Big
Codec ID: A_AC3
Duration: 1 h 38 min
Bit rate mode : Constant
Bit rate: 384 kb/s
Channel(s): 6 channels
Channel positions : Front: L C R, Side: L R, LFE
Sampling rate : 48.0 kHz
Frame rate: 31.250 FPS (1536 SPF)
Bit depth : 16 bits
Compression mode: Lossy
Delay relative to video : -42 ms
Stream size : 270 MiB (8%)
Language: English
Service kind: Complete Main
Default : Yes
Forced: No
 
Text
ID: 3
Format: UTF-8
Codec ID: S_TEXT/UTF8
Codec ID/Info : UTF-8 Plain Text
Duration: 1 h 34 min
Bit rate: 54 b/s
Count of elements : 1344
Stream size : 38.1 KiB (0%)
Language: Spanish
Default : Yes
Forced: No

Download Links

CONTRASEÑA PARA DESCOMPRIMIR

APORTES NUEVOS

cinemaniahdd.com

APORTES VIEJOS

CinemaniaHD.org

COMPRA O RENUEVA TU PREMIUM DE UPLOADED DESDE EL SIGUIENTE LINK:

http://ul.to/ref/9821430

SI GUSTAS PUEDES SEGUIRNOS EN LAS REDES SOCIALES

Facebook

Twitter

Post Relacionados