Borg McEnroe. La película (2017) 1080p Latino

Borg McEnroe. La película (2017) 1080p Latino; Mega. Google Drive. Narra la historia de la rivalidad entre dos leyendas del tenis: el sueco Björn Borg (Sverrir Gudnason) y el norteamericano John McEnroe (Shia LaBeouf), un enfrentamiento legendario de la historia del deporte que tuvo su culminación en la final de Wimbledon de 1980, que enfrentó a ambos.



Titulo original Borg vs McEnroe
Audio Español Latino AC3 2.0 iTUNES - Ingles AC3 5.1 BLURAY
Calidad: 1080p Resolucion: 1920x808p Formato: MKV
Encoder: CinefiloCool Peso: 3.07 GiB Duracion: 1h 47m
Subtitulos: Español Latino SRT- FORZADOS SRT
  • No hay video embed

Borg Vs McEnroe (2017) 1080p Latino.mkv
Format: Matroska
Format version: Version 4 / Version 2
File size : 3.07 GiB
Duration: 1 h 47 min
Overall bit rate: 4 065 kb/s
Movie name: CinemaniaHDD.Net
Encoded date: UTC 2018-11-03 02:56:49 / UTC 2018-11-02T20:47:10Z
Writing application : mkvmerge v25.0.0 ('Prog Noir') 64-bit
Writing library : libebml v1.3.6 + libmatroska v1.4.9 / Lavf57.7.2

Video
ID: 1
Format: AVC
Format/Info : Advanced Video Codec
Format profile: High@L4.1
Format settings : CABAC / 5 Ref Frames
Format settings, CABAC: Yes
Format settings, RefFrames: 5 frames
Codec ID: V_MPEG4/ISO/AVC
Duration: 1 h 47 min
Bit rate: 3 280 kb/s
Nominal bit rate: 3 500 kb/s
Width : 1 920 pixels
Height: 808 pixels
Display aspect ratio: 2.40:1
Frame rate mode : Constant
Frame rate: 24.000 FPS
Color space : YUV
Chroma subsampling: 4:2:0
Bit depth : 8 bits
Scan type : Progressive
Bits/(Pixel*Frame): 0.088
Stream size : 2.47 GiB (81%)
Title : HD1080p [Bluray]
Writing library : x264 core 155 r2893 b00bcaf
Encoding settings : cabac=1 / ref=5 / deblock=1:0:0 / analyse=0x3:0x113 / me=hex / subme=8 / psy=1 / psy_rd=1.00:0.00 / mixed_ref=1 / me_range=16 / chroma_me=1 / trellis=2 / 8x8dct=1 / cqm=0 / deadzone=21,11 / fast_pskip=1 / chroma_qp_offset=-2 / threads=25 / lookahead_threads=4 / sliced_threads=0 / nr=0 / decimate=1 / interlaced=0 / bluray_compat=0 / constrained_intra=0 / bframes=3 / b_pyramid=2 / b_adapt=1 / b_bias=0 / direct=3 / weightb=1 / open_gop=0 / weightp=2 / keyint=240 / keyint_min=24 / scenecut=40 / intra_refresh=0 / rc_lookahead=50 / rc=abr / mbtree=1 / bitrate=3500 / ratetol=1.0 / qcomp=0.60 / qpmin=0 / qpmax=69 / qpstep=4 / vbv_maxrate=62500 / vbv_bufsize=78125 / nal_hrd=none / filler=0 / ip_ratio=1.40 / aq=1:1.00
Default : Yes
Forced: No
Color range : Limited
Color primaries : BT.709
Transfer characteristics: BT.709
Matrix coefficients : BT.709
Statistics Tags Issue : mkvmerge v25.0.0 ('Prog Noir') 64-bit 2018-11-03 02:56:49 / mkvmerge v25.0.0 ('Prog Noir') 64-bit 2018-11-03 02:56:49 / UTC 2018-11-02T20:47:10Z
FromStats_BitRate : 3358849
FromStats_Duration: 01:47:58.834000000
FromStats_FrameCount: 155492
FromStats_StreamSize: 2720178417

Audio #1
ID: 2
Format: AC-3
Format/Info : Audio Coding 3
Format settings, Endianness : Big
Codec ID: A_AC3
Duration: 1 h 47 min
Bit rate mode : Constant
Bit rate: 256 kb/s
Channel(s): 2 channels
Channel positions : Front: L R
Sampling rate : 44.1 kHz
Frame rate: 28.711 FPS (1536 SPF)
Bit depth : 16 bits
Compression mode: Lossy
Delay relative to video : -5 ms
Stream size : 198 MiB (6%)
Title : AC3_2.0_Itunes_Esp
Language: Spanish
Service kind: Complete Main
Default : Yes
Forced: No
Statistics Tags Issue : mkvmerge v25.0.0 ('Prog Noir') 64-bit 2018-11-03 02:56:49 / mkvmerge v25.0.0 ('Prog Noir') 64-bit 2018-11-03 02:56:49 / UTC 2018-11-02T20:47:10Z
FromStats_BitRate : 255999
FromStats_Duration: 01:47:58.890000000
FromStats_FrameCount: 186015
FromStats_StreamSize: 207324474

Audio #2
ID: 3
Format: AC-3
Format/Info : Audio Coding 3
Format settings, Endianness : Big
Codec ID: A_AC3
Duration: 1 h 47 min
Bit rate mode : Constant
Bit rate: 448 kb/s
Channel(s): 6 channels
Channel positions : Front: L C R, Side: L R, LFE
Sampling rate : 48.0 kHz
Frame rate: 31.250 FPS (1536 SPF)
Bit depth : 16 bits
Compression mode: Lossy
Stream size : 346 MiB (11%)
Title : AC3_5.1_Bluray_Eng
Language: English
Service kind: Complete Main
Default : No
Forced: No
Statistics Tags Issue : mkvmerge v25.0.0 ('Prog Noir') 64-bit 2018-11-03 02:56:49 / mkvmerge v25.0.0 ('Prog Noir') 64-bit 2018-11-03 02:56:49 / UTC 2018-11-02T20:47:10Z
FromStats_BitRate : 448000
FromStats_Duration: 01:47:58.880000000
FromStats_FrameCount: 202465
FromStats_StreamSize: 362817280

Text #1
ID: 4
Format: UTF-8
Codec ID: S_TEXT/UTF8
Codec ID/Info : UTF-8 Plain Text
Title : Sub_Forzados
Language: Spanish
Default : Yes
Forced: Yes
Statistics Tags Issue : mkvmerge v25.0.0 ('Prog Noir') 64-bit 2018-11-03 02:56:49 / mkvmerge v25.0.0 ('Prog Noir') 64-bit 2018-11-03 02:56:49 / UTC 2018-11-02T20:47:10Z
FromStats_BitRate : 2
FromStats_Duration: 01:38:38.643000000
FromStats_FrameCount: 40
FromStats_StreamSize: 1486

Text #2
ID: 5
Format: UTF-8
Codec ID: S_TEXT/UTF8
Codec ID/Info : UTF-8 Plain Text
Title : Sub_Esp
Language: Spanish
Default : No
Forced: No
Statistics Tags Issue : mkvmerge v25.0.0 ('Prog Noir') 64-bit 2018-11-03 02:56:49 / mkvmerge v25.0.0 ('Prog Noir') 64-bit 2018-11-03 02:56:49 / UTC 2018-11-02T20:47:10Z
FromStats_BitRate : 47
FromStats_Duration: 01:38:38.643000000
FromStats_FrameCount: 1095
FromStats_StreamSize: 35232

Menu
00:00:00.000: :00:00:00.000
00:09:11.333: :00:09:11.333
00:14:41.250: :00:14:41.167
00:17:22.583: :00:17:22.583
00:27:37.458: :00:27:37.375
00:32:48.542: :00:32:48.542
00:41:39.708: :00:41:39.667
00:49:36.667: :00:49:36.542
01:01:10.333: :01:01:10.208
01:10:13.500: :01:10:13.417
01:16:42.625: :01:16:42.583
01:36:33.125: :01:36:33.125

Download Links

CONTRASEÑA PARA DESCOMPRIMIR

APORTES NUEVOS

cinemaniahdd.com

APORTES VIEJOS

CinemaniaHD.org

COMPRA O RENUEVA TU PREMIUM DE UPLOADED DESDE EL SIGUIENTE LINK:

http://ul.to/ref/9821430

SI GUSTAS PUEDES SEGUIRNOS EN LAS REDES SOCIALES

Facebook

Twitter

Post Relacionados