Caso 39 (2009) Full 1080p Latino

Emily Jenkins (Renée Zellweger) es trabajadora de servicios sociales. Emily piensa que en su campo lo ha visto todo… hasta que un día conoce a su nuevo y más misterioso caso, el que hace el número 39: una problemática niña maltratada de 10 años llamada Lilith Sullivan (Jodelle Ferland). Confirma sus peores miedos cuando los padres de Lilith intentan matar a la niña, su única hija. Emily la salva y decide llevársela con ella, hasta que otra familia llegue para acogerla. Pero pronto decubrirá que Lilith no es tan inocente como aparenta.



Titulo original Case 39
Audio Español Latino AC3 5.1 BLURAY - Ingles DTS 5.1 BLURAY
Calidad: Full 1080p Resolucion: 1920x1080p Formato: MKV
Encoder: Dracarys Peso: 7.72 GiB Duracion: 1h 49m
Subtitulos: Español Latino PGS - Ingles PGS
  • No hay video embed

Format                                   : Matroska
Format version                           : Version 4 / Version 2
File size                                : 7.72 GiB
Duration                                 : 1 h 49 min
Overall bit rate                         : 10.1 Mb/s
Movie name                               : CinemaniaHDD.net
Encoded date                             : UTC 2018-10-31 00:09:13 / UTC 2018-10-25T21:06:43Z
Writing application                      : mkvmerge v15.0.0 ('Duel with the Devil') 64-bit
Writing library                          : libebml v1.3.5 + libmatroska v1.4.5 / Lavf57.7.2

Video
ID                                       : 1
Format                                   : AVC
Format/Info                              : Advanced Video Codec
Format profile                           : High@L4.1
Format settings                          : CABAC / 4 Ref Frames
Format settings, CABAC                   : Yes
Format settings, RefFrames               : 4 frames
Codec ID                                 : V_MPEG4/ISO/AVC
Duration                                 : 1 h 49 min
Bit rate                                 : 7 756 kb/s
Width                                    : 1 920 pixels
Height                                   : 1 080 pixels
Display aspect ratio                     : 16:9
Frame rate mode                          : Constant
Frame rate                               : 23.976 (24000/1001) FPS
Color space                              : YUV
Chroma subsampling                       : 4:2:0
Bit depth                                : 8 bits
Scan type                                : Progressive
Bits/(Pixel*Frame)                       : 0.156
Stream size                              : 5.93 GiB (77%)
Writing library                          : x264 core 148 r2708 86b7198
Encoding settings                        : cabac=1 / ref=4 / deblock=1:0:0 / analyse=0x3:0x133 / me=esa / subme=10 / psy=1 / psy_rd=1.00:0.00 / mixed_ref=1 / me_range=24 / chroma_me=1 / trellis=2 / 8x8dct=1 / cqm=0 / deadzone=21,11 / fast_pskip=1 / chroma_qp_offset=-2 / threads=34 / lookahead_threads=5 / sliced_threads=0 / nr=0 / decimate=1 / interlaced=0 / bluray_compat=0 / constrained_intra=0 / bframes=8 / b_pyramid=2 / b_adapt=2 / b_bias=0 / direct=3 / weightb=1 / open_gop=0 / weightp=2 / keyint=240 / keyint_min=24 / scenecut=40 / intra_refresh=0 / rc_lookahead=60 / rc=crf / mbtree=1 / crf=20.0 / qcomp=0.60 / qpmin=0 / qpmax=69 / qpstep=4 / vbv_maxrate=62500 / vbv_bufsize=78125 / crf_max=0.0 / nal_hrd=none / filler=0 / ip_ratio=1.40 / aq=1:1.00
Language                                 : English
Default                                  : Yes
Forced                                   : No
Color range                              : Limited
Color primaries                          : BT.709
Transfer characteristics                 : BT.709
Matrix coefficients                      : BT.709
Statistics Tags Issue                    : mkvmerge v15.0.0 ('Duel with the Devil') 64-bit 2018-10-31 00:09:13 / mkvmerge v15.0.0 ('Duel with the Devil') 64-bit 2018-10-31 00:09:13 / UTC 2018-10-25T21:06:43Z
FromStats_BitRate                        : 7941325
FromStats_Duration                       : 01:49:25.601000000
FromStats_FrameCount                     : 157417
FromStats_StreamSize                     : 6517447198

Audio #1
ID                                       : 2
Format                                   : AC-3
Format/Info                              : Audio Coding 3
Format settings, Endianness              : Big
Codec ID                                 : A_AC3
Duration                                 : 1 h 49 min
Bit rate mode                            : Constant
Bit rate                                 : 640 kb/s
Channel(s)                               : 6 channels
Channel positions                        : Front: L C R, Side: L R, LFE
Sampling rate                            : 48.0 kHz
Frame rate                               : 31.250 FPS (1536 SPF)
Bit depth                                : 16 bits
Compression mode                         : Lossy
Stream size                              : 501 MiB (6%)
Language                                 : Spanish
Service kind                             : Complete Main
Default                                  : Yes
Forced                                   : No
Statistics Tags Issue                    : mkvmerge v15.0.0 ('Duel with the Devil') 64-bit 2018-10-31 00:09:13 / mkvmerge v15.0.0 ('Duel with the Devil') 64-bit 2018-10-31 00:09:13 / UTC 2018-10-25T21:06:43Z
FromStats_BitRate                        : 640000
FromStats_Duration                       : 01:49:25.632000000
FromStats_FrameCount                     : 205176
FromStats_StreamSize                     : 525250560

Audio #2
ID                                       : 3
Format                                   : DTS
Format/Info                              : Digital Theater Systems
Mode                                     : 16
Format settings, Endianness              : Big
Codec ID                                 : A_DTS
Duration                                 : 1 h 49 min
Bit rate mode                            : Constant
Bit rate                                 : 1 509 kb/s
Channel(s)                               : 6 channels
Channel positions                        : Front: L C R, Side: L R, LFE
Sampling rate                            : 48.0 kHz
Frame rate                               : 93.750 FPS (512 SPF)
Bit depth                                : 24 bits
Compression mode                         : Lossy
Stream size                              : 1.15 GiB (15%)
Language                                 : English
Default                                  : No
Forced                                   : No
Statistics Tags Issue                    : mkvmerge v15.0.0 ('Duel with the Devil') 64-bit 2018-10-31 00:09:13 / mkvmerge v15.0.0 ('Duel with the Devil') 64-bit 2018-10-31 00:09:13 / UTC 2018-10-25T21:06:43Z
FromStats_BitRate                        : 1509000
FromStats_Duration                       : 01:49:25.600000000
FromStats_FrameCount                     : 615525
FromStats_StreamSize                     : 1238436300

Text #1
ID                                       : 4
Format                                   : PGS
Muxing mode                              : zlib
Codec ID                                 : S_HDMV/PGS
Codec ID/Info                            : Picture based subtitle format used on BDs/HD-DVDs
Language                                 : English
Default                                  : No
Forced                                   : No
Statistics Tags Issue                    : mkvmerge v15.0.0 ('Duel with the Devil') 64-bit 2018-10-31 00:09:13 / mkvmerge v15.0.0 ('Duel with the Devil') 64-bit 2018-10-31 00:09:13 / UTC 2018-10-25T21:06:43Z
FromStats_BitRate                        : 26332
FromStats_Duration                       : 01:42:20.801000000
FromStats_FrameCount                     : 1690
FromStats_StreamSize                     : 20213209

Text #2
ID                                       : 5
Format                                   : PGS
Muxing mode                              : zlib
Codec ID                                 : S_HDMV/PGS
Codec ID/Info                            : Picture based subtitle format used on BDs/HD-DVDs
Language                                 : Spanish
Default                                  : No
Forced                                   : No
Statistics Tags Issue                    : mkvmerge v15.0.0 ('Duel with the Devil') 64-bit 2018-10-31 00:09:13 / mkvmerge v15.0.0 ('Duel with the Devil') 64-bit 2018-10-31 00:09:13 / UTC 2018-10-25T21:06:43Z
FromStats_BitRate                        : 22570
FromStats_Duration                       : 01:48:39.012000000
FromStats_FrameCount                     : 1670
FromStats_StreamSize                     : 18392385

Menu
00:00:00.000                             : :Chapter 1
00:06:32.726                             : :Chapter 2
00:17:14.325                             : :Chapter 3
00:26:27.920                             : :Chapter 4
00:34:46.084                             : :Chapter 5
00:40:31.095                             : :Chapter 6
00:49:25.546                             : :Chapter 7
00:55:34.206                             : :Chapter 8
01:00:05.185                             : :Chapter 9
01:06:29.068                             : :Chapter 10
01:12:35.601                             : :Chapter 11
01:20:51.263                             : :Chapter 12
01:27:50.348                             : :Chapter 13
01:38:49.215                             : :Chapter 14
01:44:31.640                             : :Chapter 15

 

Download Links

CONTRASEÑA PARA DESCOMPRIMIR

APORTES NUEVOS

cinemaniahdd.com

APORTES VIEJOS

CinemaniaHD.org

COMPRA O RENUEVA TU PREMIUM DE UPLOADED DESDE EL SIGUIENTE LINK:

http://ul.to/ref/9821430

SI GUSTAS PUEDES SEGUIRNOS EN LAS REDES SOCIALES

Facebook

Twitter

Post Relacionados