Cementerio maldito (1989) Full 1080p Latino

Louis Creed, su esposa y sus dos niños se instalan en una vivienda próxima a una carretera con mucho tráfico. Cerca de la casa hay un sendero que lleva a un cementerio de animales y también a un antiguo cementerio indio; según la leyenda, los que sean enterrados allí volverán a la vida. Cuando uno de los niños muere atropellado por un camión, Louis ldecide enterrarlo en el cementerio indio.



Titulo Original Pet Sematary
Año 1989-04-21
Duracion 1h 43m
Director
Reparto , , , , , , , , , , , , ,
Productora
Genero
Titulo original Pet Sematary
Audio Español Latino AC3 2.0 BLURAY - Ingles DTS 5.1 BLURAY
Calidad: Full 1080p Resolucion: 1920x1080p Formato: MKV
Encoder: Dracarys Peso: 10.8 GiB Duracion: 1h 43m
Subtitulos: Español Latino PGS - Ingles PGS
  • No hay video embed

Format                                   : Matroska
Format version                           : Version 4 / Version 2
File size                                : 10.8 GiB
Duration                                 : 1 h 42 min
Overall bit rate                         : 15.0 Mb/s
Movie name                               : CinemaniaHDD.net
Encoded date                             : UTC 2018-10-31 00:15:57 / UTC 2018-10-29T03:51:49Z
Writing application                      : mkvmerge v15.0.0 ('Duel with the Devil') 64-bit
Writing library                          : libebml v1.3.5 + libmatroska v1.4.5 / Lavf57.7.2

Video
ID                                       : 1
Format                                   : AVC
Format/Info                              : Advanced Video Codec
Format profile                           : High@L4.1
Format settings                          : CABAC / 4 Ref Frames
Format settings, CABAC                   : Yes
Format settings, RefFrames               : 4 frames
Codec ID                                 : V_MPEG4/ISO/AVC
Duration                                 : 1 h 42 min
Bit rate                                 : 13.0 Mb/s
Width                                    : 1 920 pixels
Height                                   : 1 080 pixels
Display aspect ratio                     : 16:9
Frame rate mode                          : Constant
Frame rate                               : 23.976 (24000/1001) FPS
Color space                              : YUV
Chroma subsampling                       : 4:2:0
Bit depth                                : 8 bits
Scan type                                : Progressive
Bits/(Pixel*Frame)                       : 0.262
Stream size                              : 9.34 GiB (86%)
Writing library                          : x264 core 148 r2708 86b7198
Encoding settings                        : cabac=1 / ref=4 / deblock=1:0:0 / analyse=0x3:0x133 / me=esa / subme=10 / psy=1 / psy_rd=1.00:0.00 / mixed_ref=1 / me_range=24 / chroma_me=1 / trellis=2 / 8x8dct=1 / cqm=0 / deadzone=21,11 / fast_pskip=1 / chroma_qp_offset=-2 / threads=34 / lookahead_threads=5 / sliced_threads=0 / nr=0 / decimate=1 / interlaced=0 / bluray_compat=0 / constrained_intra=0 / bframes=8 / b_pyramid=2 / b_adapt=2 / b_bias=0 / direct=3 / weightb=1 / open_gop=0 / weightp=2 / keyint=240 / keyint_min=24 / scenecut=40 / intra_refresh=0 / rc_lookahead=60 / rc=crf / mbtree=1 / crf=20.0 / qcomp=0.60 / qpmin=0 / qpmax=69 / qpstep=4 / vbv_maxrate=62500 / vbv_bufsize=78125 / crf_max=0.0 / nal_hrd=none / filler=0 / ip_ratio=1.40 / aq=1:1.00
Language                                 : English
Default                                  : Yes
Forced                                   : No
Color range                              : Limited
Color primaries                          : BT.709
Transfer characteristics                 : BT.709
Matrix coefficients                      : BT.709
Statistics Tags Issue                    : mkvmerge v15.0.0 ('Duel with the Devil') 64-bit 2018-10-31 00:15:57 / mkvmerge v15.0.0 ('Duel with the Devil') 64-bit 2018-10-31 00:15:57 / UTC 2018-10-29T03:51:49Z
FromStats_BitRate                        : 13285540
FromStats_Duration                       : 01:42:45.326000000
FromStats_FrameCount                     : 147820
FromStats_StreamSize                     : 10238711176

Audio #1
ID                                       : 2
Format                                   : AC-3
Format/Info                              : Audio Coding 3
Format settings, Endianness              : Big
Codec ID                                 : A_AC3
Duration                                 : 1 h 42 min
Bit rate mode                            : Constant
Bit rate                                 : 224 kb/s
Channel(s)                               : 2 channels
Channel positions                        : Front: L R
Sampling rate                            : 48.0 kHz
Frame rate                               : 31.250 FPS (1536 SPF)
Bit depth                                : 16 bits
Compression mode                         : Lossy
Stream size                              : 165 MiB (1%)
Language                                 : Spanish
Service kind                             : Complete Main
Default                                  : Yes
Forced                                   : No
Statistics Tags Issue                    : mkvmerge v15.0.0 ('Duel with the Devil') 64-bit 2018-10-31 00:15:57 / mkvmerge v15.0.0 ('Duel with the Devil') 64-bit 2018-10-31 00:15:57 / UTC 2018-10-29T03:51:49Z
FromStats_BitRate                        : 224000
FromStats_Duration                       : 01:42:45.312000000
FromStats_FrameCount                     : 192666
FromStats_StreamSize                     : 172628736

Audio #2
ID                                       : 3
Format                                   : DTS
Format/Info                              : Digital Theater Systems
Mode                                     : 16
Format settings, Endianness              : Big
Codec ID                                 : A_DTS
Duration                                 : 1 h 42 min
Bit rate mode                            : Constant
Bit rate                                 : 1 509 kb/s
Channel(s)                               : 6 channels
Channel positions                        : Front: L C R, Side: L R, LFE
Sampling rate                            : 48.0 kHz
Frame rate                               : 93.750 FPS (512 SPF)
Bit depth                                : 24 bits
Compression mode                         : Lossy
Stream size                              : 1.08 GiB (10%)
Language                                 : English
Default                                  : No
Forced                                   : No
Statistics Tags Issue                    : mkvmerge v15.0.0 ('Duel with the Devil') 64-bit 2018-10-31 00:15:57 / mkvmerge v15.0.0 ('Duel with the Devil') 64-bit 2018-10-31 00:15:57 / UTC 2018-10-29T03:51:49Z
FromStats_BitRate                        : 1509000
FromStats_Duration                       : 01:42:45.312000000
FromStats_FrameCount                     : 577998
FromStats_StreamSize                     : 1162931976

Text #1
ID                                       : 4
Format                                   : PGS
Muxing mode                              : zlib
Codec ID                                 : S_HDMV/PGS
Codec ID/Info                            : Picture based subtitle format used on BDs/HD-DVDs
Language                                 : English
Default                                  : No
Forced                                   : No
Statistics Tags Issue                    : mkvmerge v15.0.0 ('Duel with the Devil') 64-bit 2018-10-31 00:15:57 / mkvmerge v15.0.0 ('Duel with the Devil') 64-bit 2018-10-31 00:15:57 / UTC 2018-10-29T03:51:49Z
FromStats_BitRate                        : 30596
FromStats_Duration                       : 01:38:51.926000000
FromStats_FrameCount                     : 1730
FromStats_StreamSize                     : 22687085

Text #2
ID                                       : 5
Format                                   : PGS
Muxing mode                              : zlib
Codec ID                                 : S_HDMV/PGS
Codec ID/Info                            : Picture based subtitle format used on BDs/HD-DVDs
Language                                 : Spanish
Default                                  : No
Forced                                   : No
Statistics Tags Issue                    : mkvmerge v15.0.0 ('Duel with the Devil') 64-bit 2018-10-31 00:15:57 / mkvmerge v15.0.0 ('Duel with the Devil') 64-bit 2018-10-31 00:15:57 / UTC 2018-10-29T03:51:49Z
FromStats_BitRate                        : 29753
FromStats_Duration                       : 01:39:03.646000000
FromStats_FrameCount                     : 1752
FromStats_StreamSize                     : 22105663

Text #3
ID                                       : 6
Format                                   : PGS
Muxing mode                              : zlib
Codec ID                                 : S_HDMV/PGS
Codec ID/Info                            : Picture based subtitle format used on BDs/HD-DVDs
Title                                    : Forzados
Language                                 : Spanish
Default                                  : Yes
Forced                                   : No
Statistics Tags Issue                    : mkvmerge v15.0.0 ('Duel with the Devil') 64-bit 2018-10-31 00:15:57 / mkvmerge v15.0.0 ('Duel with the Devil') 64-bit 2018-10-31 00:15:57 / UTC 2018-10-29T03:51:49Z
FromStats_BitRate                        : 311
FromStats_Duration                       : 01:34:12.522000000
FromStats_FrameCount                     : 12
FromStats_StreamSize                     : 220340

Menu
00:00:00.000                             : :Chapter 1
00:03:04.184                             : :Chapter 2
00:09:57.889                             : :Chapter 3
00:17:25.127                             : :Chapter 4
00:25:07.256                             : :Chapter 5
00:33:45.941                             : :Chapter 6
00:40:50.531                             : :Chapter 7
00:44:18.698                             : :Chapter 8
00:47:38.522                             : :Chapter 9
00:53:32.543                             : :Chapter 10
01:00:08.939                             : :Chapter 11
01:09:11.939                             : :Chapter 12
01:16:45.101                             : :Chapter 13
01:21:37.976                             : :Chapter 14
01:26:33.063                             : :Chapter 15
01:28:28.470                             : :Chapter 16
01:30:20.248                             : :Chapter 17
01:35:37.899                             : :Chapter 18
01:39:35.595                             : :Chapter 19

 

Download Links

CONTRASEÑA PARA DESCOMPRIMIR

APORTES NUEVOS

cinemaniahdd.com

APORTES VIEJOS

CinemaniaHD.org

COMPRA O RENUEVA TU PREMIUM DE UPLOADED DESDE EL SIGUIENTE LINK:

http://ul.to/ref/9821430

SI GUSTAS PUEDES SEGUIRNOS EN LAS REDES SOCIALES

Facebook

Twitter

Post Relacionados