Chappie (2015) 4K HDR Latino

chappie-42020-poster.jpg

Ambientada en Johanesburgo, y con un personaje robótico ridículo como protagonista, este delirante relato nos traslada a un viaje por las emociones y sentimientos en un mundo distinto a la par que sorprendente. Con un argumento elaborado y un trasfondo reflexivo, esta cómica historia encaja en un marco inusual visualmente cuidado e impactante. Una comedia que cala por la simplicidad de su trama principal, y engancha por los minuciosos detalles que te adentran en una realidad ficticia y muy visual. Enigmática y divertida a partes iguales, se trata de una historia de corazón en un entorno robotizado y futurista donde la ciencia ficción es el paisaje.



Titulo original Chappie
Audio Español Latino AC3 5.1 BLURAY - Ingles AC3 5.1 BLURAY
Calidad: 4K HDR Resolucion: 3840x1596p Formato: MKV
Encoder: Dracarys Peso: 12.6 GiB Duracion: 2h 0m
Subtitulos: Español Latino PGS - Ingles PGS
  • No hay video embed

Format : Matroska
Format version : Version 4 / Version 2
File size: 12.6 GiB
Duration : 2 h 0 min
Overall bit rate : 15.0 Mb/s
Movie name : CinemaniaHDD.com
Encoded date : UTC 2018-03-16 01:12:22
Writing application: mkvmerge v15.0.0 ('Duel with the Devil') 64-bit
Writing library: libebml v1.3.5 + libmatroska v1.4.5

Video
ID : 1
Format : HEVC
Format/Info: High Efficiency Video Coding
Format profile : Main 10@L5.1@High
Codec ID : V_MPEGH/ISO/HEVC
Duration : 2 h 0 min
Bit rate : 13.7 Mb/s
Width: 3 840 pixels
Height : 1 596 pixels
Display aspect ratio : 2.40:1
Frame rate mode: Constant
Frame rate : 23.976 (24000/1001) FPS
Color space: YUV
Chroma subsampling : 4:2:0 (Type 2)
Bit depth: 10 bits
Bits/(Pixel*Frame) : 0.093
Stream size: 11.5 GiB (91%)
Title: Chappie (2015) 4K HDR Latino
Writing library: x265 2.5+58-06979c042350:[Windows][GCC 6.2.1][64 bit] 10bit
Encoding settings: cpuid=1173503 / frame-threads=4 / numa-pools=16 / wpp / no-pmode / no-pme / no-psnr / no-ssim / log-level=2 / input-csp=1 / input-res=3840x1596 / interlace=0 / total-frames=173088 / level-idc=51 / high-tier=1 / uhd-bd=0 / ref=4 / no-allow-non-conformance / repeat-headers / annexb / aud / hrd / info / hash=0 / no-temporal-layers / no-open-gop / min-keyint=1 / keyint=24 / bframes=4 / b-adapt=2 / b-pyramid / bframe-bias=0 / rc-lookahead=25 / lookahead-slices=4 / scenecut=40 / no-intra-refresh / ctu=64 / min-cu-size=8 / rect / no-amp / max-tu-size=32 / tu-inter-depth=1 / tu-intra-depth=1 / limit-tu=0 / rdoq-level=2 / dynamic-rd=0.00 / no-ssim-rd / signhide / no-tskip / nr-intra=0 / nr-inter=0 / no-constrained-intra / no-strong-intra-smoothing / max-merge=3 / limit-refs=3 / limit-modes / me=3 / subme=3 / merange=57 / temporal-mvp / weightp / no-weightb / no-analyze-src-pics / deblock=-3:-3 / no-sao / no-sao-non-deblock / rd=4 / no-early-skip / rskip / no-fast-intra / no-tskip-fast / no-cu-lossless / no-b-intra / no-splitrd-skip / rdpenalty=0 / psy-rd=2.00 / psy-rdoq=1.00 / no-rd-refine / analysis-reuse-mode=0 / no-lossless / cbqpoffs=0 / crqpoffs=0 / rc=crf / crf=17.0 / qcomp=0.60 / qpstep=4 / stats-write=0 / stats-read=0 / vbv-maxrate=160000 / vbv-bufsize=160000 / vbv-init=0.9 / crf-max=0.0 / crf-min=0.0 / ipratio=1.40 / pbratio=1.30 / aq-mode=1 / aq-strength=1.00 / cutree / zone-count=0 / no-strict-cbr / qg-size=32 / no-rc-grain / qpmax=69 / qpmin=0 / no-const-vbv / sar=1 / overscan=0 / videoformat=5 / range=0 / colorprim=9 / transfer=16 / colormatrix=9 / chromaloc=1 / chromaloc-top=2 / chromaloc-bottom=2 / display-window=0 / master-display=G(13250,34500)B(7500,3000)R(34000,16000)WP(15635,16450)L(40000000,50) / max-cll=8154,1570 / min-luma=0 / max-luma=1023 / log2-max-poc-lsb=8 / vui-timing-info / vui-hrd-info / slices=1 / no-opt-qp-pps / no-opt-ref-list-length-pps / no-multi-pass-opt-rps / scenecut-bias=0.05 / no-opt-cu-delta-qp / no-aq-motion / hdr / hdr-opt / no-dhdr10-opt / analysis-reuse-level=5 / scale-factor=0 / refine-intra=0 / refine-inter=0 / refine-mv=0 / no-limit-sao / ctu-info=0 / no-lowpass-dct / refine-mv-type=0 / copy-pic=1
Language : English
Default: Yes
Forced : No
Color range: Limited
Color primaries: BT.2020
Transfer characteristics : PQ
Matrix coefficients: BT.2020 non-constant
Mastering display color primaries: R: x=0.680000 y=0.320000, G: x=0.265000 y=0.690000, B: x=0.150000 y=0.060000, White point: x=0.312700 y=0.329000
Mastering display luminance: min: 0.0050 cd/m2, max: 4000.0000 cd/m2
Maximum Content Light Level: 8154 cd/m2
Maximum Frame-Average Light Level: 1570 cd/m2

Audio #1
ID : 2
Format : AC-3
Format/Info: Audio Coding 3
Format settings, Endianness: Big
Codec ID : A_AC3
Duration : 2 h 0 min
Bit rate mode: Constant
Bit rate : 640 kb/s
Channel(s) : 6 channels
Channel positions: Front: L C R, Side: L R, LFE
Sampling rate: 48.0 kHz
Frame rate : 31.250 FPS (1536 SPF)
Bit depth: 16 bits
Compression mode : Lossy
Stream size: 551 MiB (4%)
Language : Spanish
Service kind : Complete Main
Default: Yes
Forced : No

Audio #2
ID : 3
Format : AC-3
Format/Info: Audio Coding 3
Format settings, Endianness: Big
Codec ID : A_AC3
Duration : 2 h 0 min
Bit rate mode: Constant
Bit rate : 640 kb/s
Channel(s) : 6 channels
Channel positions: Front: L C R, Side: L R, LFE
Sampling rate: 48.0 kHz
Frame rate : 31.250 FPS (1536 SPF)
Bit depth: 16 bits
Compression mode : Lossy
Stream size: 551 MiB (4%)
Language : English
Service kind : Complete Main
Default: No
Forced : No

Text #1
ID : 4
Format : PGS
Muxing mode: zlib
Codec ID : S_HDMV/PGS
Codec ID/Info: Picture based subtitle format used on BDs/HD-DVDs
Duration : 1 h 52 min
Bit rate : 34.6 kb/s
Count of elements: 3137
Stream size: 27.8 MiB (0%)
Language : English
Default: No
Forced : No

Text #2
ID : 5
Format : PGS
Muxing mode: zlib
Codec ID : S_HDMV/PGS
Codec ID/Info: Picture based subtitle format used on BDs/HD-DVDs
Duration : 1 h 59 min
Bit rate : 31.9 kb/s
Count of elements: 3573
Stream size: 27.3 MiB (0%)
Language : Spanish
Default: No
Forced : No

Menu
00:00:00.000 : en:00:00:00.000
00:03:37.008 : en:00:03:37.008
00:09:55.261 : en:00:09:55.261
00:13:50.496 : en:00:13:50.496
00:21:53.646 : en:00:21:53.646
00:31:17.542 : en:00:31:17.542
00:37:19.320 : en:00:37:19.320
00:46:58.733 : en:00:46:58.733
00:54:36.690 : en:00:54:36.690
01:06:12.927 : en:01:06:12.927
01:09:57.652 : en:01:09:57.652
01:16:48.395 : en:01:16:48.395
01:24:59.553 : en:01:24:59.553
01:31:35.198 : en:01:31:35.198
01:42:36.942 : en:01:42:36.942
01:50:03.597 : en:01:50:03.597

Download Links

CONTRASEÑA PARA DESCOMPRIMIR

APORTES NUEVOS

cinemaniahdd.com

APORTES VIEJOS

CinemaniaHD.org

COMPRA O RENUEVA TU PREMIUM DE UPLOADED DESDE EL SIGUIENTE LINK:

http://ul.to/ref/9821430

SI GUSTAS PUEDES SEGUIRNOS EN LAS REDES SOCIALES

Facebook

Twitter

Post Relacionados