Check Point (2017) HD 1080p Castellano

Descargar Check Point (2017) HD 1080p Castellano, Mega, Google Drive, Torrent. Puerto de Carolina del Norte: durante un campamento de rutina, un vagabundo local descubre planes para una invasión en Estados Unidos. Cuando trata de notificar al Sheriff local sobre su descubrimiento, el Sheriff desestima sus reclamos y lo encierra por merodear. Cuando el Alguacil se da cuenta de las extrañas interacciones con la gente de otras ciudades, comienza a investigar la afirmación del vagabundo y descubre que una célula dormida, vive entre los habitantes de esta pequeña ciudad.



Titulo original Check Point
Audio Español Castellano AC3 2.0 DVD- Ingles AC3 5.1 BLURAY
Calidad: 1080p Resolucion: 1920x1080p Formato: MKV
Encoder: CinefiloCool Peso: 2.84 GiB Duracion: 1h 40m
Subtitulos: No
  • No hay video embed

Check Point (2017) HD 1080p Español.mkv
Format: Matroska
Format version: Version 4
File size : 2.84 GiB
Duration: 1 h 37 min
Overall bit rate: 4 176 kb/s
Movie name: CinemaniaHDD.Net
Encoded date: UTC 2018-12-23 18:00:47
Writing application : mkvmerge v28.2.0 ('The Awakening') 64-bit
Writing library : libebml v1.3.6 + libmatroska v1.4.9

Video
ID: 1
Format: AVC
Format/Info : Advanced Video Codec
Format profile: High@L4.1
Format settings : CABAC / 4 Ref Frames
Format settings, CABAC: Yes
Format settings, ReFrames : 4 frames
Codec ID: V_MPEG4/ISO/AVC
Duration: 1 h 37 min
Bit rate: 3 500 kb/s
Width : 1 920 pixels
Height: 1 080 pixels
Display aspect ratio: 16:9
Frame rate mode : Constant
Frame rate: 23.976 (24000/1001) FPS
Color space : YUV
Chroma subsampling: 4:2:0
Bit depth : 8 bits
Scan type : Progressive
Bits/(Pixel*Frame): 0.070
Stream size : 2.36 GiB (83%)
Title : HD1080p [Bluray]
Writing library : x264 core 155 r2901 7d0ff22
Encoding settings : cabac=1 / ref=4 / deblock=1:0:0 / analyse=0x3:0x113 / me=hex / subme=8 / psy=1 / psy_rd=1.00:0.00 / mixed_ref=1 / me_range=16 / chroma_me=1 / trellis=2 / 8x8dct=1 / cqm=0 / deadzone=21,11 / fast_pskip=1 / chroma_qp_offset=-2 / threads=34 / lookahead_threads=5 / sliced_threads=0 / nr=0 / decimate=1 / interlaced=0 / bluray_compat=0 / constrained_intra=0 / bframes=3 / b_pyramid=2 / b_adapt=1 / b_bias=0 / direct=3 / weightb=1 / open_gop=0 / weightp=2 / keyint=240 / keyint_min=24 / scenecut=40 / intra_refresh=0 / rc_lookahead=50 / rc=abr / mbtree=1 / bitrate=3500 / ratetol=1.0 / qcomp=0.60 / qpmin=0 / qpmax=69 / qpstep=4 / vbv_maxrate=62500 / vbv_bufsize=78125 / nal_hrd=none / filler=0 / ip_ratio=1.40 / aq=1:1.00
Default : Yes
Forced: No
Color range : Limited
Color primaries : BT.709
Transfer characteristics: BT.709
Matrix coefficients : BT.709

Audio #1
ID: 2
Format: AC-3
Format/Info : Audio Coding 3
Commercial name : Dolby Digital
Codec ID: A_AC3
Duration: 1 h 37 min
Bit rate mode : Constant
Bit rate: 256 kb/s
Channel(s): 2 channels
Channel layout: L R
Sampling rate : 48.0 kHz
Frame rate: 31.250 FPS (1536 SPF)
Bit depth : 16 bits
Compression mode: Lossy
Delay relative to video : -5 ms
Stream size : 179 MiB (6%)
Title : AC3_2.0_DVD_Cast
Language: Spanish
Service kind: Complete Main
Default : Yes
Forced: Yes

Audio #2
ID: 3
Format: AC-3
Format/Info : Audio Coding 3
Commercial name : Dolby Digital
Codec ID: A_AC3
Duration: 1 h 37 min
Bit rate mode : Constant
Bit rate: 448 kb/s
Channel(s): 6 channels
Channel layout: L R C LFE Ls Rs
Sampling rate : 48.0 kHz
Frame rate: 31.250 FPS (1536 SPF)
Bit depth : 16 bits
Compression mode: Lossy
Stream size : 313 MiB (11%)
Title : AC3_5.1_Bluray_Eng
Language: English
Service kind: Complete Main
Default : No
Forced: No

Menu
00:00:00.000: :00:00:00.000
00:13:36.399: :00:13:36.274
00:32:02.462: :00:32:02.337
00:48:07.510: :00:48:07.426
00:58:15.867: :00:58:15.867
01:15:37.450: :01:15:37.450

Download Links

CONTRASEÑA PARA DESCOMPRIMIR

APORTES NUEVOS

cinemaniahdd.com

APORTES VIEJOS

CinemaniaHD.org

COMPRA O RENUEVA TU PREMIUM DE UPLOADED DESDE EL SIGUIENTE LINK:

http://ul.to/ref/9821430

SI GUSTAS PUEDES SEGUIRNOS EN LAS REDES SOCIALES

Facebook

Twitter

Post Relacionados