Children of the Corn Runaway (2018) WEB-DL 1080p Subtitulado

los-chicos-del-maiz-runaway-42061-poster.jpg

Una joven mujer embarazada escapa de una secta criminal en una pequeña ciudad del medio oeste. A continuación, se pasa la próxima década viviendo de forma anónima en un intento de salvar a su hijo de los horrores que ella experimentó siendo niña. Llega a una pequeña ciudad de Oklahoma… pero algo la está siguiendo. Ahora, ella debe hacer frente a este mal o perder a su hijo.



Titulo Original Children Of The Corn: Runaway
Año 2018-03-13
Duracion 1h 22m
Director
Reparto , , , , ,
Productora
Genero
Titulo original Children Of The Corn: Runaway
Audio Ingles AC3 5.1 iTunes
Calidad: 1080p Resolucion: 1912x808 Formato: MKV
Encoder: Lpratto Peso: 2.83 GB Duracion: 1h 22m
Subtitulos: Español Latino SRT
  • No hay video embed

Format: Matroska
Format version: Version 4 / Version 2
File size : 2.83 GiB
Duration: 1 h 22 min
Overall bit rate: 4 929 kb/s
Movie name: CinemaniaHDD.com
Encoded date: UTC 2018-03-16 12:33:53
Writing application : mkvmerge v15.0.0 ('Duel with the Devil') 64-bit
Writing library : libebml v1.3.5 + libmatroska v1.4.5
 
Video
ID: 1
Format: AVC
Format/Info : Advanced Video Codec
Format profile: High@L4
Format settings, CABAC: Yes
Format settings, RefFrames: 5 frames
Codec ID: V_MPEG4/ISO/AVC
Duration: 1 h 22 min
Bit rate: 4 544 kb/s
Width : 1 912 pixels
Height: 808 pixels
Display aspect ratio: 2.35:1
Frame rate mode : Constant
Frame rate: 23.976 (24000/1001) FPS
Color space : YUV
Chroma subsampling: 4:2:0
Bit depth : 8 bits
Scan type : Progressive
Bits/(Pixel*Frame): 0.123
Stream size : 2.61 GiB (92%)
Language: English
Default : Yes
Forced: No
Color range : Limited
Color primaries : BT.709
Transfer characteristics: BT.709
Matrix coefficients : BT.709
 
Audio
ID: 2
Format: AC-3
Format/Info : Audio Coding 3
Format settings, Endianness : Big
Codec ID: A_AC3
Duration: 1 h 22 min
Bit rate mode : Constant
Bit rate: 384 kb/s
Channel(s): 6 channels
Channel positions : Front: L C R, Side: L R, LFE
Sampling rate : 48.0 kHz
Frame rate: 31.250 FPS (1536 SPF)
Bit depth : 16 bits
Compression mode: Lossy
Stream size : 226 MiB (8%)
Language: English
Service kind: Complete Main
Default : Yes
Forced: No
 
Text
ID: 3
Format: UTF-8
Codec ID: S_TEXT/UTF8
Codec ID/Info : UTF-8 Plain Text
Duration: 1 h 18 min
Bit rate: 30 b/s
Count of elements : 613
Stream size : 17.9 KiB (0%)
Language: Spanish
Default : Yes
Forced: No

Download Links

CONTRASEÑA PARA DESCOMPRIMIR

APORTES NUEVOS

cinemaniahdd.com

APORTES VIEJOS

CinemaniaHD.org

COMPRA O RENUEVA TU PREMIUM DE UPLOADED DESDE EL SIGUIENTE LINK:

http://ul.to/ref/9821430

SI GUSTAS PUEDES SEGUIRNOS EN LAS REDES SOCIALES

Facebook

Twitter

Post Relacionados