Christopher Robin (2018) 1080p Latino

Descargar Christopher Robin (2018) 1080p Latino; Mega, Google Drive. En esta nueva aventura de acción real, el niño que se embarcó en innumerables aventuras en el bosque de los Cien Acres con su banda de animales de peluche, ha crecido y… ha perdido el rumbo. Ahora les toca a sus amigos de la infancia aventurarse en nuestro mundo y ayudar a Christopher Robin a recordar al niño cariñoso y juguetón que aún tiene dentro.



Titulo original Christopher Robin
Audio Español Latino AC3 5.1 BLURAY - Ingles AC3 5.1 BLURAY
Calidad: 1080p Resolucion: 1920x804p Formato: MKV
Encoder: Dracarys Peso: 3.45 GiB Duracion: 1h 40m
Subtitulos: Español Latino SRT - Ingles SRT
  • No hay video embed

Christopher Robin Un Reencuentro Inolvidable (2018) 1080p Latino.mkv
Format: Matroska
Format version: Version 4 / Version 2
File size : 3.45 GiB
Duration: 1 h 43 min
Overall bit rate: 4 755 kb/s
Movie name: CinemaniaHDD.Net
Encoded date: UTC 2018-10-27 02:21:21 / UTC 2018-10-26T07:17:30Z
Writing application : mkvmerge v25.0.0 ('Prog Noir') 64-bit
Writing library : libebml v1.3.6 + libmatroska v1.4.9 / Lavf57.7.2

Video
ID: 1
Format: AVC
Format/Info : Advanced Video Codec
Format profile: High@L4.1
Format settings : CABAC / 5 Ref Frames
Format settings, CABAC: Yes
Format settings, RefFrames: 5 frames
Codec ID: V_MPEG4/ISO/AVC
Duration: 1 h 43 min
Bit rate: 3 500 kb/s
Width : 1 920 pixels
Height: 804 pixels
Display aspect ratio: 2.40:1
Frame rate mode : Constant
Frame rate: 23.976 (24000/1001) FPS
Color space : YUV
Chroma subsampling: 4:2:0
Bit depth : 8 bits
Scan type : Progressive
Bits/(Pixel*Frame): 0.095
Stream size : 2.45 GiB (71%)
Title : HD1080p [Bluray]
Writing library : x264 core 148 r2708 86b7198
Encoding settings : cabac=1 / ref=5 / deblock=1:0:0 / analyse=0x3:0x113 / me=umh / subme=8 / psy=1 / psy_rd=1.00:0.00 / mixed_ref=1 / me_range=16 / chroma_me=1 / trellis=1 / 8x8dct=1 / cqm=0 / deadzone=21,11 / fast_pskip=1 / chroma_qp_offset=-2 / threads=25 / lookahead_threads=4 / sliced_threads=0 / nr=0 / decimate=1 / interlaced=0 / bluray_compat=0 / constrained_intra=0 / bframes=3 / b_pyramid=2 / b_adapt=2 / b_bias=0 / direct=3 / weightb=1 / open_gop=0 / weightp=2 / keyint=240 / keyint_min=24 / scenecut=40 / intra_refresh=0 / rc_lookahead=50 / rc=abr / mbtree=1 / bitrate=3500 / ratetol=1.0 / qcomp=0.60 / qpmin=0 / qpmax=69 / qpstep=4 / vbv_maxrate=62500 / vbv_bufsize=78125 / nal_hrd=none / filler=0 / ip_ratio=1.40 / aq=1:1.00
Default : Yes
Forced: No
Color range : Limited
Color primaries : BT.709
Transfer characteristics: BT.709
Matrix coefficients : BT.709
Statistics Tags Issue : mkvmerge v25.0.0 ('Prog Noir') 64-bit 2018-10-27 02:21:21 / mkvmerge v25.0.0 ('Prog Noir') 64-bit 2018-10-27 02:21:21 / UTC 2018-10-26T07:17:30Z
FromStats_BitRate : 3472449
FromStats_Duration: 01:43:55.980000000
FromStats_FrameCount: 149514
FromStats_StreamSize: 2706765955

Audio #1
ID: 2
Format: AC-3
Format/Info : Audio Coding 3
Format settings, Endianness : Big
Codec ID: A_AC3
Duration: 1 h 43 min
Bit rate mode : Constant
Bit rate: 640 kb/s
Channel(s): 6 channels
Channel positions : Front: L C R, Side: L R, LFE
Sampling rate : 48.0 kHz
Frame rate: 31.250 FPS (1536 SPF)
Bit depth : 16 bits
Compression mode: Lossy
Stream size : 476 MiB (13%)
Title : AC3_5.1_Bluray_Esp
Language: Spanish
Service kind: Complete Main
Default : Yes
Forced: No
Statistics Tags Issue : mkvmerge v25.0.0 ('Prog Noir') 64-bit 2018-10-27 02:21:21 / mkvmerge v25.0.0 ('Prog Noir') 64-bit 2018-10-27 02:21:21 / UTC 2018-10-26T07:17:30Z
FromStats_BitRate : 640000
FromStats_Duration: 01:43:56.032000000
FromStats_FrameCount: 194876
FromStats_StreamSize: 498882560

Audio #2
ID: 3
Format: AC-3
Format/Info : Audio Coding 3
Format settings, Endianness : Big
Codec ID: A_AC3
Duration: 1 h 43 min
Bit rate mode : Constant
Bit rate: 640 kb/s
Channel(s): 6 channels
Channel positions : Front: L C R, Side: L R, LFE
Sampling rate : 48.0 kHz
Frame rate: 31.250 FPS (1536 SPF)
Bit depth : 16 bits
Compression mode: Lossy
Delay relative to video : -5 ms
Stream size : 476 MiB (13%)
Title : AC3_5.1_Bluray_Eng
Language: English
Service kind: Complete Main
Default : No
Forced: No
Statistics Tags Issue : mkvmerge v25.0.0 ('Prog Noir') 64-bit 2018-10-27 02:21:21 / mkvmerge v25.0.0 ('Prog Noir') 64-bit 2018-10-27 02:21:21 / UTC 2018-10-26T07:17:30Z
FromStats_BitRate : 640000
FromStats_Duration: 01:43:56.000000000
FromStats_FrameCount: 194875
FromStats_StreamSize: 498880000

Text #1
ID: 4
Format: UTF-8
Codec ID: S_TEXT/UTF8
Codec ID/Info : UTF-8 Plain Text
Title : Sub_Forzados
Language: Spanish
Default : Yes
Forced: Yes
Statistics Tags Issue : mkvmerge v25.0.0 ('Prog Noir') 64-bit 2018-10-27 02:21:21 / mkvmerge v25.0.0 ('Prog Noir') 64-bit 2018-10-27 02:21:21 / UTC 2018-10-26T07:17:30Z
FromStats_BitRate : 0
FromStats_Duration: 01:37:57.705000000
FromStats_FrameCount: 17
FromStats_StreamSize: 390

Text #2
ID: 5
Format: UTF-8
Codec ID: S_TEXT/UTF8
Codec ID/Info : UTF-8 Plain Text
Title : Sub_Esp
Language: Spanish
Default : No
Forced: No
Statistics Tags Issue : mkvmerge v25.0.0 ('Prog Noir') 64-bit 2018-10-27 02:21:21 / mkvmerge v25.0.0 ('Prog Noir') 64-bit 2018-10-27 02:21:21 / UTC 2018-10-26T07:17:30Z
FromStats_BitRate : 65
FromStats_Duration: 01:40:30.867000000
FromStats_FrameCount: 1743
FromStats_StreamSize: 49178

Text #3
ID: 6
Format: UTF-8
Codec ID: S_TEXT/UTF8
Codec ID/Info : UTF-8 Plain Text
Title : Sub_Eng
Language: English
Default : No
Forced: No
Statistics Tags Issue : mkvmerge v25.0.0 ('Prog Noir') 64-bit 2018-10-27 02:21:21 / mkvmerge v25.0.0 ('Prog Noir') 64-bit 2018-10-27 02:21:21 / UTC 2018-10-26T07:17:30Z
FromStats_BitRate : 65
FromStats_Duration: 01:40:41.918000000
FromStats_FrameCount: 1702
FromStats_StreamSize: 49805

Menu
00:00:00.000: :Chapter 1
00:01:43.395: :Chapter 2
00:07:36.039: :Chapter 3
00:12:32.043: :Chapter 4
00:23:47.301: :Chapter 5
00:32:17.519: :Chapter 6
00:44:35.464: :Chapter 7
00:54:39.151: :Chapter 8
00:59:13.508: :Chapter 9
01:08:01.369: :Chapter 10
01:18:45.262: :Chapter 11
01:29:59.060: :Chapter 12
01:36:03.549: :Chapter 13
01:38:31.948: :Chapter 14

Download Links

CONTRASEÑA PARA DESCOMPRIMIR

APORTES NUEVOS

cinemaniahdd.com

APORTES VIEJOS

CinemaniaHD.org

COMPRA O RENUEVA TU PREMIUM DE UPLOADED DESDE EL SIGUIENTE LINK:

http://ul.to/ref/9821430

SI GUSTAS PUEDES SEGUIRNOS EN LAS REDES SOCIALES

Facebook

Twitter

Post Relacionados