Contactos de cuarto tipo (2009) Full 1080p Latino

Thriller sobrenatural ambientado en Alaska en el que una mujer investiga una serie de misteriosas desapariciones ocurridas en el lugar durante los últimos 40 años. A finales del año 2000, los pacientes de la terapeuta Abbey Tyler, bajo hipnosis, reflejaron comportamientos que sugerían encuentros con seres no humanos. Antes de dormir, todos ellos aseguraban haber visto un búho que les observaba desde fuera de la ventana. Y despertaban completamente paralizados, escuchando ruidos terroríficos que provenían de fuera de la habitación. Los recuerdos posteriores se sumían en la oscuridad. La doctora prosiguió con sus investigaciones, descubriendo que la desaparición de personas y sucesos extraños en la región se remontaba a los años 60.



Titulo original The Fourth Kind
Audio Español Latino DTS 5.1 BLURAY - Ingles DTS 5.1 BLURAY
Calidad: Full 1080p Resolucion: 1920x1080p Formato: MKV
Encoder: Dracarys Peso: 7.49 GiB Duracion: 1h 39m
Subtitulos: Español Latino PGS - Ingles PGS
  • No hay video embed

Format                                   : Matroska
Format version                           : Version 4 / Version 2
File size                                : 7.49 GiB
Duration                                 : 1 h 38 min
Overall bit rate                         : 10.9 Mb/s
Movie name                               : CinemaniaHDD.net
Encoded date                             : UTC 2018-11-07 22:58:54 / UTC 2018-11-06T15:13:42Z
Writing application                      : mkvmerge v15.0.0 ('Duel with the Devil') 64-bit
Writing library                          : libebml v1.3.5 + libmatroska v1.4.5 / Lavf57.7.2

Video
ID                                       : 1
Format                                   : AVC
Format/Info                              : Advanced Video Codec
Format profile                           : High@L4.1
Format settings                          : CABAC / 4 Ref Frames
Format settings, CABAC                   : Yes
Format settings, RefFrames               : 4 frames
Codec ID                                 : V_MPEG4/ISO/AVC
Duration                                 : 1 h 38 min
Bit rate                                 : 8 443 kb/s
Width                                    : 1 920 pixels
Height                                   : 1 080 pixels
Display aspect ratio                     : 16:9
Frame rate mode                          : Constant
Frame rate                               : 23.976 (24000/1001) FPS
Color space                              : YUV
Chroma subsampling                       : 4:2:0
Bit depth                                : 8 bits
Scan type                                : Progressive
Bits/(Pixel*Frame)                       : 0.170
Stream size                              : 5.78 GiB (77%)
Writing library                          : x264 core 148 r2708 86b7198
Encoding settings                        : cabac=1 / ref=4 / deblock=1:0:0 / analyse=0x3:0x133 / me=esa / subme=10 / psy=1 / psy_rd=1.00:0.00 / mixed_ref=1 / me_range=24 / chroma_me=1 / trellis=2 / 8x8dct=1 / cqm=0 / deadzone=21,11 / fast_pskip=1 / chroma_qp_offset=-2 / threads=34 / lookahead_threads=5 / sliced_threads=0 / nr=0 / decimate=1 / interlaced=0 / bluray_compat=0 / constrained_intra=0 / bframes=8 / b_pyramid=2 / b_adapt=2 / b_bias=0 / direct=3 / weightb=1 / open_gop=0 / weightp=2 / keyint=240 / keyint_min=24 / scenecut=40 / intra_refresh=0 / rc_lookahead=60 / rc=crf / mbtree=1 / crf=20.0 / qcomp=0.60 / qpmin=0 / qpmax=69 / qpstep=4 / vbv_maxrate=62500 / vbv_bufsize=78125 / crf_max=0.0 / nal_hrd=none / filler=0 / ip_ratio=1.40 / aq=1:1.00
Language                                 : English
Default                                  : Yes
Forced                                   : No
Color range                              : Limited
Color primaries                          : BT.709
Transfer characteristics                 : BT.709
Matrix coefficients                      : BT.709
Statistics Tags Issue                    : mkvmerge v15.0.0 ('Duel with the Devil') 64-bit 2018-11-07 22:58:54 / mkvmerge v15.0.0 ('Duel with the Devil') 64-bit 2018-11-07 22:58:54 / UTC 2018-11-06T15:13:42Z
FromStats_BitRate                        : 8632105
FromStats_Duration                       : 01:38:00.500000000
FromStats_FrameCount                     : 140991
FromStats_StreamSize                     : 6345137222

Audio #1
ID                                       : 2
Format                                   : DTS
Format/Info                              : Digital Theater Systems
Mode                                     : 16
Format settings, Endianness              : Big
Codec ID                                 : A_DTS
Duration                                 : 1 h 38 min
Bit rate mode                            : Constant
Bit rate                                 : 768 kb/s
Channel(s)                               : 6 channels
Channel positions                        : Front: L C R, Side: L R, LFE
Sampling rate                            : 48.0 kHz
Frame rate                               : 93.750 FPS (512 SPF)
Bit depth                                : 24 bits
Compression mode                         : Lossy
Stream size                              : 538 MiB (7%)
Language                                 : Spanish
Default                                  : Yes
Forced                                   : No
Statistics Tags Issue                    : mkvmerge v15.0.0 ('Duel with the Devil') 64-bit 2018-11-07 22:58:54 / mkvmerge v15.0.0 ('Duel with the Devil') 64-bit 2018-11-07 22:58:54 / UTC 2018-11-06T15:13:42Z
FromStats_BitRate                        : 767999
FromStats_Duration                       : 01:38:00.491000000
FromStats_FrameCount                     : 551296
FromStats_StreamSize                     : 564527104

Audio #2
ID                                       : 3
Format                                   : DTS
Format/Info                              : Digital Theater Systems
Mode                                     : 16
Format settings, Endianness              : Big
Codec ID                                 : A_DTS
Duration                                 : 1 h 38 min
Bit rate mode                            : Constant
Bit rate                                 : 1 509 kb/s
Channel(s)                               : 6 channels
Channel positions                        : Front: L C R, Side: L R, LFE
Sampling rate                            : 48.0 kHz
Frame rate                               : 93.750 FPS (512 SPF)
Bit depth                                : 24 bits
Compression mode                         : Lossy
Stream size                              : 1.03 GiB (14%)
Language                                 : English
Default                                  : No
Forced                                   : No
Statistics Tags Issue                    : mkvmerge v15.0.0 ('Duel with the Devil') 64-bit 2018-11-07 22:58:54 / mkvmerge v15.0.0 ('Duel with the Devil') 64-bit 2018-11-07 22:58:54 / UTC 2018-11-06T15:13:42Z
FromStats_BitRate                        : 1508999
FromStats_Duration                       : 01:38:00.491000000
FromStats_FrameCount                     : 551296
FromStats_StreamSize                     : 1109207552

Text #1
ID                                       : 4
Format                                   : PGS
Muxing mode                              : zlib
Codec ID                                 : S_HDMV/PGS
Codec ID/Info                            : Picture based subtitle format used on BDs/HD-DVDs
Language                                 : English
Default                                  : No
Forced                                   : No
Statistics Tags Issue                    : mkvmerge v15.0.0 ('Duel with the Devil') 64-bit 2018-11-07 22:58:54 / mkvmerge v15.0.0 ('Duel with the Devil') 64-bit 2018-11-07 22:58:54 / UTC 2018-11-06T15:13:42Z
FromStats_BitRate                        : 44180
FromStats_Duration                       : 01:36:59.522000000
FromStats_FrameCount                     : 2977
FromStats_StreamSize                     : 32138642

Text #2
ID                                       : 5
Format                                   : PGS
Muxing mode                              : zlib
Codec ID                                 : S_HDMV/PGS
Codec ID/Info                            : Picture based subtitle format used on BDs/HD-DVDs
Language                                 : Spanish
Default                                  : No
Forced                                   : No
Statistics Tags Issue                    : mkvmerge v15.0.0 ('Duel with the Devil') 64-bit 2018-11-07 22:58:54 / mkvmerge v15.0.0 ('Duel with the Devil') 64-bit 2018-11-07 22:58:54 / UTC 2018-11-06T15:13:42Z
FromStats_BitRate                        : 39126
FromStats_Duration                       : 01:36:59.522000000
FromStats_FrameCount                     : 2436
FromStats_StreamSize                     : 28462036

Text #3
ID                                       : 6
Format                                   : PGS
Muxing mode                              : zlib
Codec ID                                 : S_HDMV/PGS
Codec ID/Info                            : Picture based subtitle format used on BDs/HD-DVDs
Title                                    : Forzados
Language                                 : Spanish
Default                                  : Yes
Forced                                   : Yes
Statistics Tags Issue                    : mkvmerge v15.0.0 ('Duel with the Devil') 64-bit 2018-11-07 22:58:54 / mkvmerge v15.0.0 ('Duel with the Devil') 64-bit 2018-11-07 22:58:54 / UTC 2018-11-06T15:13:42Z
FromStats_BitRate                        : 2125
FromStats_Duration                       : 01:28:27.093000000
FromStats_FrameCount                     : 128
FromStats_StreamSize                     : 1410348

Menu
00:00:00.000                             : :Chapter 1
00:01:42.227                             : :Chapter 2
00:08:16.705                             : :Chapter 3
00:13:53.207                             : :Chapter 4
00:19:54.777                             : :Chapter 5
00:24:25.297                             : :Chapter 6
00:28:32.961                             : :Chapter 7
00:33:37.474                             : :Chapter 8
00:36:56.756                             : :Chapter 9
00:43:03.498                             : :Chapter 10
00:47:29.680                             : :Chapter 11
00:52:42.576                             : :Chapter 12
00:56:45.444                             : :Chapter 13
01:01:00.782                             : :Chapter 14
01:05:16.454                             : :Chapter 15
01:09:48.351                             : :Chapter 16
01:14:15.242                             : :Chapter 17
01:20:38.375                             : :Chapter 18
01:27:30.537                             : :Chapter 19
01:32:21.369                             : :Chapter 20

 

Download Links

CONTRASEÑA PARA DESCOMPRIMIR

APORTES NUEVOS

cinemaniahdd.com

APORTES VIEJOS

CinemaniaHD.org

COMPRA O RENUEVA TU PREMIUM DE UPLOADED DESDE EL SIGUIENTE LINK:

http://ul.to/ref/9821430

SI GUSTAS PUEDES SEGUIRNOS EN LAS REDES SOCIALES

Facebook

Twitter

Post Relacionados