Contando a Mis Ex (2011) [AMZN] WEB-DL 1080p Latino

Ally es inteligente, atractiva, divertida y romántica pero se halla en un momento vital en el que no tiene el marido, el trabajo o el tipo de vida que se había imaginado. Tras leer un artículo en una revista que advierte que las personas que han tenido 20 o más relaciones amorosas han perdido la oportunidad de encontrar el amor verdadero, Ally decide emprender la búsqueda del mejor “ex” de su vida, utilizando todos los medios necesarios.

 

 
Latino: E-AC3 5.1  –  Ingles: E-AC3 5.1



Titulo original What's Your Number?
Audio Se especifica abajo de la Sinopsis
Calidad: WEBDL Resolucion: 1920x1040p Formato: MKV
Encoder: Amazon Peso: 10.5 GiB Duracion: 1h 46m
Subtitulos: Español Latino SRT- FORZADOS SRT
  • No hay video embed

Format                                   : Matroska
Format version                           : Version 4 / Version 2
File size                                : 10.5 GiB
Duration                                 : 1 h 46 min
Overall bit rate mode                    : Variable
Overall bit rate                         : 14.1 Mb/s
Movie name                               : CinemaniaHDD.net
Encoded date                             : UTC 2018-10-21 05:36:02
Writing application                      : mkvmerge v15.0.0 ('Duel with the Devil') 64-bit
Writing library                          : libebml v1.3.5 + libmatroska v1.4.5

Video
ID                                       : 1
Format                                   : AVC
Format/Info                              : Advanced Video Codec
Format profile                           : High@L4
Format settings                          : CABAC / 4 Ref Frames
Format settings, CABAC                   : Yes
Format settings, RefFrames               : 4 frames
Codec ID                                 : V_MPEG4/ISO/AVC
Duration                                 : 1 h 46 min
Bit rate mode                            : Variable
Bit rate                                 : 12.8 Mb/s
Maximum bit rate                         : 15.0 Mb/s
Width                                    : 1 920 pixels
Height                                   : 1 040 pixels
Display aspect ratio                     : 1.85:1
Frame rate mode                          : Constant
Frame rate                               : 23.976 (24000/1001) FPS
Color space                              : YUV
Chroma subsampling                       : 4:2:0
Bit depth                                : 8 bits
Scan type                                : Progressive
Bits/(Pixel*Frame)                       : 0.268
Stream size                              : 9.51 GiB (91%)
Language                                 : English
Default                                  : Yes
Forced                                   : No
Color range                              : Limited
Color primaries                          : BT.709
Transfer characteristics                 : BT.709
Matrix coefficients                      : BT.709

Audio #1
ID                                       : 2
Format                                   : E-AC-3
Format/Info                              : Enhanced Audio Coding 3
Format settings, Endianness              : Big
Codec ID                                 : A_EAC3
Duration                                 : 1 h 46 min
Bit rate mode                            : Constant
Bit rate                                 : 640 kb/s
Channel(s)                               : 6 channels
Channel positions                        : Front: L C R, Side: L R, LFE
Sampling rate                            : 48.0 kHz
Frame rate                               : 187.500 FPS (256 SPF)
Compression mode                         : Lossy
Stream size                              : 486 MiB (5%)
Language                                 : Spanish
Service kind                             : Complete Main
Default                                  : Yes
Forced                                   : No

Audio #2
ID                                       : 3
Format                                   : E-AC-3
Format/Info                              : Enhanced Audio Coding 3
Format settings, Endianness              : Big
Codec ID                                 : A_EAC3
Duration                                 : 1 h 46 min
Bit rate mode                            : Constant
Bit rate                                 : 640 kb/s
Channel(s)                               : 6 channels
Channel positions                        : Front: L C R, Side: L R, LFE
Sampling rate                            : 48.0 kHz
Frame rate                               : 187.500 FPS (256 SPF)
Compression mode                         : Lossy
Stream size                              : 486 MiB (5%)
Language                                 : English
Service kind                             : Complete Main
Default                                  : No
Forced                                   : No

Text #1
ID                                       : 4
Format                                   : UTF-8
Codec ID                                 : S_TEXT/UTF8
Codec ID/Info                            : UTF-8 Plain Text
Duration                                 : 1 h 39 min
Bit rate                                 : 70 b/s
Count of elements                        : 1514
Stream size                              : 51.0 KiB (0%)
Language                                 : English
Default                                  : No
Forced                                   : No

Text #2
ID                                       : 5
Format                                   : UTF-8
Codec ID                                 : S_TEXT/UTF8
Codec ID/Info                            : UTF-8 Plain Text
Duration                                 : 1 h 35 min
Bit rate                                 : 0 b/s
Count of elements                        : 18
Stream size                              : 506 Bytes (0%)
Title                                    : Forzados
Language                                 : Spanish
Default                                  : Yes
Forced                                   : Yes

Text #3
ID                                       : 6
Format                                   : UTF-8
Codec ID                                 : S_TEXT/UTF8
Codec ID/Info                            : UTF-8 Plain Text
Duration                                 : 1 h 40 min
Bit rate                                 : 67 b/s
Count of elements                        : 1562
Stream size                              : 50.1 KiB (0%)
Language                                 : Spanish
Default                                  : No
Forced                                   : No

Menu
00:00:00.000                             : en:Studio Logo
00:00:40.000                             : en:Opening Credits
00:01:29.000                             : en:Ally Asks Rick to Be Her Date for Her Sister's Wedding
00:04:06.000                             : en:Ally Heads to Work
00:05:48.000                             : en:Ally Heads Home
00:07:55.000                             : en:Ally Lists Everyone with Whom She's Slept
00:10:48.000                             : en:Ally Gives a Speech
00:13:08.000                             : en:Ally and Daisy Go Out for Drinks
00:18:40.000                             : en:Ally Awakens to a Shock
00:22:45.000                             : en:Ally Goes Cake Tasting with Daisy and Runs into an Old Fling
00:25:35.000                             : en:Ally Does Some Internet Sleuthing
00:27:20.000                             : en:Ally Asks for Colin's Assistance
00:30:07.000                             : en:Ally and Colin Walk and Talk
00:31:33.000                             : en:Daisy Tries On Wedding Dresses
00:33:20.000                             : en:Ally Goes to Check Up on Dave Hansen
00:35:08.000                             : en:Colin and Ally Get into the Nitty-Gritty
00:38:43.000                             : en:Ally and Colin Go to Visit Simon
00:41:34.000                             : en:Ally Tells Colin about Her Date with Simon
00:43:06.000                             : en:Ally and Colin Regroup
00:44:18.000                             : en:Ally Runs Into Gerry Perry
00:44:51.000                             : en:BLANK SCENE
00:45:12.000                             : en:Ally and Colin Eat Pretzels
00:45:47.000                             : en:Ally and Daisy Have Lunch with Their Mom
00:47:52.000                             : en:Ally Goes In for a Checkup
00:49:51.000                             : en:Daisy Stops By Ally's Place
00:51:15.000                             : en:Ally Checks Things Out at the Library
00:54:50.000                             : en:Ally Meets Up with Tom
00:57:13.000                             : en:Colin Tries to Cheer Ally Up
01:03:27.000                             : en:Colin and Ally Continue Their Night of Adventure
01:08:22.000                             : en:Ally Meets with Her Sister for Flower Shopping
01:10:23.000                             : en:Ally Confirms Her Suspicions
01:13:19.000                             : en:Ally Calls Jake
01:13:48.000                             : en:Ally Meets with Jake
01:17:31.000                             : en:Ally and Daisy Go to Tell Mom the News
01:19:24.000                             : en:Ally and Jake Have Fun Together
01:20:35.000                             : en:Ally and Colin See Each Other
01:21:38.000                             : en:Daisy's Wedding Day
01:25:16.000                             : en:Ally Gains Insight during the Reception
01:31:09.000                             : en:Ally Has a Talk with Jake
01:32:15.000                             : en:Ava's Upset about Recent Events Regarding Ally
01:34:32.000                             : en:Ally Goes to Every Wedding in the City to Find Colin
01:38:28.000                             : en:Ally Has a Speech for Colin
01:40:39.000                             : en:Ally Receives an Exciting Phone Call
01:42:00.000                             : en:End Credits

 

Download Links

CONTRASEÑA PARA DESCOMPRIMIR

APORTES NUEVOS

cinemaniahdd.com

APORTES VIEJOS

CinemaniaHD.org

COMPRA O RENUEVA TU PREMIUM DE UPLOADED DESDE EL SIGUIENTE LINK:

http://ul.to/ref/9821430

SI GUSTAS PUEDES SEGUIRNOS EN LAS REDES SOCIALES

Facebook

Twitter

Post Relacionados