Crazy Rich Asians (2018) Web-DL Subtitulado

Crazy Rich Asians (2018) Web-DL Subtitulado; Mega, Google Drive. Rachel Chu es profesora de economía en la Universidad de Nueva York, allí conoce a Nick Young -profesor de historia- y se enamoran. Ambos tienen que viajar a la ciudad natal de Nick, Singapur, para asistir a la boda de su mejor amigo. Es allí cuando Rachel descubre que su novio pertenece a una de las familias más ricas de Asia y que todas las solteras de clase alta están increíblemente celosas de ella. La joven tendrá que enfrentarse a todas ellas y demostrar a la familia de su novio que ella también es digna de estar con él.



Titulo original Crazy Rich Asians
Audio Ingles AC3 5.1 iTunes
Calidad: WEBDL Resolucion: 1920x800 Formato: MKV
Encoder: FGT Peso: 4.13 GiB Duracion: 2h 0m
Subtitulos: Español Latino SRT - Ingles SRT
  • No hay video embed

Crazy Rich Asians (2018) Web-DL 1080p Subtitulado.mkv
Format: Matroska
Format version: Version 4 / Version 2
File size : 4.13 GiB
Duration: 2 h 0 min
Overall bit rate: 4 904 kb/s
Movie name: CinemaniaHDD.Net
Encoded date: UTC 2018-11-07 02:22:41
Writing application : mkvmerge v25.0.0 ('Prog Noir') 64-bit
Writing library : libebml v1.3.6 + libmatroska v1.4.9
Cover : Yes
Attachments : cover_land.jpg / small_cover.jpg / small_cover_land.jpg / cover.jpg

Video
ID: 1
Format: AVC
Format/Info : Advanced Video Codec
Format profile: High@L4
Format settings : CABAC / 5 Ref Frames
Format settings, CABAC: Yes
Format settings, RefFrames: 5 frames
Codec ID: V_MPEG4/ISO/AVC
Duration: 2 h 0 min
Bit rate: 4 518 kb/s
Width : 1 920 pixels
Height: 800 pixels
Display aspect ratio: 2.40:1
Frame rate mode : Constant
Frame rate: 23.976 (24000/1001) FPS
Color space : YUV
Chroma subsampling: 4:2:0
Bit depth : 8 bits
Scan type : Progressive
Bits/(Pixel*Frame): 0.123
Stream size : 3.81 GiB (92%)
Title : HD1080p [Web-DL]
Default : Yes
Forced: No
Color range : Limited
Color primaries : BT.709
Transfer characteristics: BT.709
Matrix coefficients : BT.709

Audio
ID: 2
Format: AC-3
Format/Info : Audio Coding 3
Format settings, Endianness : Big
Codec ID: A_AC3
Duration: 2 h 0 min
Bit rate mode : Constant
Bit rate: 384 kb/s
Channel(s): 6 channels
Channel positions : Front: L C R, Side: L R, LFE
Sampling rate : 48.0 kHz
Frame rate: 31.250 FPS (1536 SPF)
Bit depth : 16 bits
Compression mode: Lossy
Delay relative to video : -42 ms
Stream size : 331 MiB (8%)
Title : AC3_5.1_Web-DL_Eng
Language: English
Service kind: Complete Main
Default : Yes
Forced: No

Text #1
ID: 3
Format: UTF-8
Codec ID: S_TEXT/UTF8
Codec ID/Info : UTF-8 Plain Text
Duration: 1 h 56 min
Bit rate: 74 b/s
Count of elements : 2009
Stream size : 63.8 KiB (0%)
Title : Sub_Esp
Language: Spanish
Default : Yes
Forced: Yes

Text #2
ID: 4
Format: UTF-8
Codec ID: S_TEXT/UTF8
Codec ID/Info : UTF-8 Plain Text
Duration: 1 h 55 min
Bit rate: 67 b/s
Count of elements : 1854
Stream size : 56.9 KiB (0%)
Title : Sub_Eng
Language: English
Default : No
Forced: No

Menu
00:00:00.000: en:1
00:11:28.000: en:2
00:20:33.000: en:3
00:33:10.000: en:4
00:44:41.000: en:5
00:54:49.000: en:6
01:04:57.000: en:7
01:14:35.000: en:8
01:24:51.000: en:9
01:34:37.000: en:10
01:46:55.000: en:11
01:53:53.000: en:12

Download Links

CONTRASEÑA PARA DESCOMPRIMIR

APORTES NUEVOS

cinemaniahdd.com

APORTES VIEJOS

CinemaniaHD.org

COMPRA O RENUEVA TU PREMIUM DE UPLOADED DESDE EL SIGUIENTE LINK:

http://ul.to/ref/9821430

SI GUSTAS PUEDES SEGUIRNOS EN LAS REDES SOCIALES

Facebook

Twitter

Post Relacionados