Criaturas Nocturnas (2018) 1080p Latino

Descargar Criaturas Nocturnas (2018) 1080p Latino; Mega, Google Drive. Anna (Bel Powley) es una joven que se pasó toda su infancia encerrada en el desván, bajo el cuidado de un misterioso hombre al que conocía como papá (Brad Dourif). Un día la sheriff del pueblo, Ellen Cooper (Liv Tyler) libera a Anna y la ayuda a comenzar una nueva vida acogiéndola en su casa, pero las pesadillas de la infancia sobre unos monstruos comeniños llamados “Wildlings” interrumpen la posibilidad de una vida normal de la pequeña Anna.



Titulo original Wildling
Audio Español Latino AC3 5.1 DVD - Ingles AC3 5.1 BLURAY
Calidad: 1080p Resolucion: 1920x802p Formato: MKV
Encoder: CinefiloCool Peso: 2.76 GiB Duracion: 1h 32m
Subtitulos: Español Latino SRT - Ingles SRT
  • No hay video embed

Criaturas Nocturnas (2018) 1080p Latino.mkv
Format: Matroska
Format version: Version 4 / Version 2
File size : 2.76 GiB
Duration: 1 h 32 min
Overall bit rate: 4 267 kb/s
Movie name: CinemaniaHDD.Net
Encoded date: UTC 2018-10-21 02:15:50 / UTC 2018-10-20T23:30:15Z
Writing application : mkvmerge v25.0.0 ('Prog Noir') 64-bit
Writing library : libebml v1.3.6 + libmatroska v1.4.9 / Lavf57.7.2

Video
ID: 1
Format: AVC
Format/Info : Advanced Video Codec
Format profile: High@L4.1
Format settings : CABAC / 5 Ref Frames
Format settings, CABAC: Yes
Format settings, RefFrames: 5 frames
Codec ID: V_MPEG4/ISO/AVC
Duration: 1 h 32 min
Bit rate: 3 286 kb/s
Nominal bit rate: 3 500 kb/s
Width : 1 920 pixels
Height: 802 pixels
Display aspect ratio: 2.40:1
Frame rate mode : Constant
Frame rate: 23.976 (24000/1001) FPS
Color space : YUV
Chroma subsampling: 4:2:0
Bit depth : 8 bits
Scan type : Progressive
Bits/(Pixel*Frame): 0.089
Stream size : 2.13 GiB (77%)
Title : HD1080P [Bluray]
Writing library : x264 core 155 r2893 b00bcaf
Encoding settings : cabac=1 / ref=5 / deblock=1:0:0 / analyse=0x3:0x113 / me=hex / subme=8 / psy=1 / psy_rd=1.00:0.00 / mixed_ref=1 / me_range=16 / chroma_me=1 / trellis=2 / 8x8dct=1 / cqm=0 / deadzone=21,11 / fast_pskip=1 / chroma_qp_offset=-2 / threads=25 / lookahead_threads=4 / sliced_threads=0 / nr=0 / decimate=1 / interlaced=0 / bluray_compat=0 / constrained_intra=0 / bframes=3 / b_pyramid=2 / b_adapt=1 / b_bias=0 / direct=3 / weightb=1 / open_gop=0 / weightp=2 / keyint=240 / keyint_min=24 / scenecut=40 / intra_refresh=0 / rc_lookahead=50 / rc=abr / mbtree=1 / bitrate=3500 / ratetol=1.0 / qcomp=0.60 / qpmin=0 / qpmax=69 / qpstep=4 / vbv_maxrate=62500 / vbv_bufsize=78125 / nal_hrd=none / filler=0 / ip_ratio=1.40 / aq=1:1.00
Default : Yes
Forced: No
Color range : Limited
Color primaries : BT.709
Transfer characteristics: BT.709
Matrix coefficients : BT.709
Statistics Tags Issue : mkvmerge v25.0.0 ('Prog Noir') 64-bit 2018-10-21 02:15:50 / mkvmerge v25.0.0 ('Prog Noir') 64-bit 2018-10-21 02:15:50 / UTC 2018-10-20T23:30:15Z
FromStats_BitRate : 3368977
FromStats_Duration: 01:32:35.425000000
FromStats_FrameCount: 133197
FromStats_StreamSize: 2339512519

Audio #1
ID: 2
Format: AC-3
Format/Info : Audio Coding 3
Format settings, Endianness : Big
Codec ID: A_AC3
Duration: 1 h 32 min
Bit rate mode : Constant
Bit rate: 448 kb/s
Channel(s): 6 channels
Channel positions : Front: L C R, Side: L R, LFE
Sampling rate : 48.0 kHz
Frame rate: 31.250 FPS (1536 SPF)
Bit depth : 16 bits
Compression mode: Lossy
Delay relative to video : -5 ms
Stream size : 297 MiB (10%)
Title : AC3_5.1_DVD_Esp
Language: Spanish
Service kind: Complete Main
Default : Yes
Forced: Yes
Statistics Tags Issue : mkvmerge v25.0.0 ('Prog Noir') 64-bit 2018-10-21 02:15:50 / mkvmerge v25.0.0 ('Prog Noir') 64-bit 2018-10-21 02:15:50 / UTC 2018-10-20T23:30:15Z
FromStats_BitRate : 448000
FromStats_Duration: 01:32:36.000000000
FromStats_FrameCount: 173625
FromStats_StreamSize: 311136000

Audio #2
ID: 3
Format: AC-3
Format/Info : Audio Coding 3
Format settings, Endianness : Big
Codec ID: A_AC3
Duration: 1 h 32 min
Bit rate mode : Constant
Bit rate: 448 kb/s
Channel(s): 6 channels
Channel positions : Front: L C R, Side: L R, LFE
Sampling rate : 48.0 kHz
Frame rate: 31.250 FPS (1536 SPF)
Bit depth : 16 bits
Compression mode: Lossy
Stream size : 297 MiB (10%)
Title : AC3_5.1_Bluray_Eng
Language: English
Service kind: Complete Main
Default : No
Forced: No
Statistics Tags Issue : mkvmerge v25.0.0 ('Prog Noir') 64-bit 2018-10-21 02:15:50 / mkvmerge v25.0.0 ('Prog Noir') 64-bit 2018-10-21 02:15:50 / UTC 2018-10-20T23:30:15Z
FromStats_BitRate : 448000
FromStats_Duration: 01:32:35.424000000
FromStats_FrameCount: 173607
FromStats_StreamSize: 311103744

Text #1
ID: 4
Format: UTF-8
Codec ID: S_TEXT/UTF8
Codec ID/Info : UTF-8 Plain Text
Title : Sub_Forzados
Language: Spanish
Default : Yes
Forced: Yes
Statistics Tags Issue : mkvmerge v25.0.0 ('Prog Noir') 64-bit 2018-10-21 02:15:50 / mkvmerge v25.0.0 ('Prog Noir') 64-bit 2018-10-21 02:15:50 / UTC 2018-10-20T23:30:15Z
FromStats_BitRate : 1
FromStats_Duration: 00:04:10.210000000
FromStats_FrameCount: 2
FromStats_StreamSize: 58

Text #2
ID: 5
Format: UTF-8
Codec ID: S_TEXT/UTF8
Codec ID/Info : UTF-8 Plain Text
Title : Sub_Esp
Language: Spanish
Default : No
Forced: No
Statistics Tags Issue : mkvmerge v25.0.0 ('Prog Noir') 64-bit 2018-10-21 02:15:50 / mkvmerge v25.0.0 ('Prog Noir') 64-bit 2018-10-21 02:15:50 / UTC 2018-10-20T23:30:15Z
FromStats_BitRate : 26
FromStats_Duration: 01:23:28.510000000
FromStats_FrameCount: 571
FromStats_StreamSize: 16851

Text #3
ID: 6
Format: UTF-8
Codec ID: S_TEXT/UTF8
Codec ID/Info : UTF-8 Plain Text
Title : Sub_Eng
Language: English
Default : No
Forced: No
Statistics Tags Issue : mkvmerge v25.0.0 ('Prog Noir') 64-bit 2018-10-21 02:15:50 / mkvmerge v25.0.0 ('Prog Noir') 64-bit 2018-10-21 02:15:50 / UTC 2018-10-20T23:30:15Z
FromStats_BitRate : 29
FromStats_Duration: 01:31:45.234000000
FromStats_FrameCount: 868
FromStats_StreamSize: 20487

Download Links

CONTRASEÑA PARA DESCOMPRIMIR

APORTES NUEVOS

cinemaniahdd.com

APORTES VIEJOS

CinemaniaHD.org

COMPRA O RENUEVA TU PREMIUM DE UPLOADED DESDE EL SIGUIENTE LINK:

http://ul.to/ref/9821430

SI GUSTAS PUEDES SEGUIRNOS EN LAS REDES SOCIALES

Facebook

Twitter

Post Relacionados