Cuatro fantásticos (2015) 1080p Latino

Cuatro fantásticos (2015) 1080p Latino; Mega, Google Drive. Cuatro jóvenes inadaptados se teletransportan a un peligroso universo alternativo, lo que les confiere extraños poderes. Cuando sus vidas cambian de forma drástica e irremediable, deben aprender a controlar sus nuevas habilidades y trabajar en equipo para salvar al mundo de un viejo conocido que ahora se ha convertido en un temible enemigo. Adaptación contemporánea del equipo de superhéroes de Marvel.



Titulo original Fantastic Four
Audio Español Latino AC3 5.1 BLURAY - Ingles AC3 5.1 BLURAY
Calidad: 1080p Resolucion: 1920x804p Formato: MKV
Encoder: CinefiloCool Peso: 3.07 GiB Duracion: 1h 40m
Subtitulos: Español Latino SRT - Ingles SRT
  • No hay video embed

Los 4 Fantasticos (2015) 1080p Latino.mkv
Format: Matroska
Format version: Version 4 / Version 2
File size : 3.07 GiB
Duration: 1 h 39 min
Overall bit rate: 4 398 kb/s
Movie name: CinemaniaHDD.Net
Encoded date: UTC 2018-10-23 04:56:20 / UTC 2018-10-22T16:31:37Z
Writing application : mkvmerge v25.0.0 ('Prog Noir') 64-bit
Writing library : libebml v1.3.6 + libmatroska v1.4.9 / Lavf57.7.2

Video
ID: 1
Format: AVC
Format/Info : Advanced Video Codec
Format profile: High@L4.1
Format settings : CABAC / 5 Ref Frames
Format settings, CABAC: Yes
Format settings, RefFrames: 5 frames
Codec ID: V_MPEG4/ISO/AVC
Duration: 1 h 39 min
Bit rate: 3 500 kb/s
Width : 1 920 pixels
Height: 804 pixels
Display aspect ratio: 2.40:1
Frame rate mode : Constant
Frame rate: 23.976 (24000/1001) FPS
Color space : YUV
Chroma subsampling: 4:2:0
Bit depth : 8 bits
Scan type : Progressive
Bits/(Pixel*Frame): 0.095
Stream size : 2.38 GiB (78%)
Title : HD1080p [Bluray]
Writing library : x264 core 155 r2893 b00bcaf
Encoding settings : cabac=1 / ref=5 / deblock=1:0:0 / analyse=0x3:0x133 / me=umh / subme=9 / psy=1 / psy_rd=1.00:0.00 / mixed_ref=1 / me_range=16 / chroma_me=1 / trellis=2 / 8x8dct=1 / cqm=0 / deadzone=21,11 / fast_pskip=1 / chroma_qp_offset=-2 / threads=25 / lookahead_threads=2 / sliced_threads=0 / nr=0 / decimate=1 / interlaced=0 / bluray_compat=0 / constrained_intra=0 / bframes=3 / b_pyramid=2 / b_adapt=2 / b_bias=0 / direct=3 / weightb=1 / open_gop=0 / weightp=2 / keyint=240 / keyint_min=24 / scenecut=40 / intra_refresh=0 / rc_lookahead=60 / rc=2pass / mbtree=1 / bitrate=3500 / ratetol=1.0 / qcomp=0.60 / qpmin=0 / qpmax=69 / qpstep=4 / cplxblur=20.0 / qblur=0.5 / vbv_maxrate=62500 / vbv_bufsize=78125 / nal_hrd=none / filler=0 / ip_ratio=1.40 / aq=1:1.00
Default : Yes
Forced: No
Color range : Limited
Color primaries : BT.709
Transfer characteristics: BT.709
Matrix coefficients : BT.709
Statistics Tags Issue : mkvmerge v25.0.0 ('Prog Noir') 64-bit 2018-10-23 04:56:20 / mkvmerge v25.0.0 ('Prog Noir') 64-bit 2018-10-23 04:56:20 / UTC 2018-10-22T16:31:37Z
FromStats_BitRate : 3499992
FromStats_Duration: 01:39:58.493000000
FromStats_FrameCount: 143820
FromStats_StreamSize: 2624334731

Audio #1
ID: 2
Format: AC-3
Format/Info : Audio Coding 3
Format settings, Endianness : Big
Codec ID: A_AC3
Duration: 1 h 39 min
Bit rate mode : Constant
Bit rate: 448 kb/s
Channel(s): 6 channels
Channel positions : Front: L C R, Side: L R, LFE
Sampling rate : 48.0 kHz
Frame rate: 31.250 FPS (1536 SPF)
Bit depth : 16 bits
Compression mode: Lossy
Delay relative to video : -5 ms
Stream size : 320 MiB (10%)
Title : AC3_5.1_Bluray_Esp
Language: Spanish
Service kind: Complete Main
Default : Yes
Forced: Yes
Statistics Tags Issue : mkvmerge v25.0.0 ('Prog Noir') 64-bit 2018-10-23 04:56:20 / mkvmerge v25.0.0 ('Prog Noir') 64-bit 2018-10-23 04:56:20 / UTC 2018-10-22T16:31:37Z
FromStats_BitRate : 448000
FromStats_Duration: 01:39:58.496000000
FromStats_FrameCount: 187453
FromStats_StreamSize: 335915776

Audio #2
ID: 3
Format: AC-3
Format/Info : Audio Coding 3
Format settings, Endianness : Big
Codec ID: A_AC3
Duration: 1 h 39 min
Bit rate mode : Constant
Bit rate: 448 kb/s
Channel(s): 6 channels
Channel positions : Front: L C R, Side: L R, LFE
Sampling rate : 48.0 kHz
Frame rate: 31.250 FPS (1536 SPF)
Bit depth : 16 bits
Compression mode: Lossy
Stream size : 320 MiB (10%)
Title : AC3_5.1_Bluray_Eng
Language: English
Service kind: Complete Main
Default : No
Forced: No
Statistics Tags Issue : mkvmerge v25.0.0 ('Prog Noir') 64-bit 2018-10-23 04:56:20 / mkvmerge v25.0.0 ('Prog Noir') 64-bit 2018-10-23 04:56:20 / UTC 2018-10-22T16:31:37Z
FromStats_BitRate : 448000
FromStats_Duration: 01:39:58.496000000
FromStats_FrameCount: 187453
FromStats_StreamSize: 335915776

Text #1
ID: 4
Format: UTF-8
Codec ID: S_TEXT/UTF8
Codec ID/Info : UTF-8 Plain Text
Title : Sub_Esp
Language: Spanish
Default : Yes
Forced: No
Statistics Tags Issue : mkvmerge v25.0.0 ('Prog Noir') 64-bit 2018-10-23 04:56:20 / mkvmerge v25.0.0 ('Prog Noir') 64-bit 2018-10-23 04:56:20 / UTC 2018-10-22T16:31:37Z
FromStats_BitRate : 49
FromStats_Duration: 01:32:27.051000000
FromStats_FrameCount: 1154
FromStats_StreamSize: 34200

Text #2
ID: 5
Format: UTF-8
Codec ID: S_TEXT/UTF8
Codec ID/Info : UTF-8 Plain Text
Title : Sub_Eng
Language: English
Default : No
Forced: No
Statistics Tags Issue : mkvmerge v25.0.0 ('Prog Noir') 64-bit 2018-10-23 04:56:20 / mkvmerge v25.0.0 ('Prog Noir') 64-bit 2018-10-23 04:56:20 / UTC 2018-10-22T16:31:37Z
FromStats_BitRate : 95
FromStats_Duration: 01:32:22.041000000
FromStats_FrameCount: 1086
FromStats_StreamSize: 66133

Menu
00:00:00.000: :00:00:00.000
00:02:30.025: :00:02:30.025
00:07:22.609: :00:07:22.609
00:11:00.160: :00:11:00.159
00:14:59.524: :00:14:59.524
00:17:57.785: :00:17:57.785
00:22:03.322: :00:22:03.322
00:24:44.483: :00:24:44.483
00:27:49.960: :00:27:49.877
00:30:19.776: :00:30:19.776
00:34:56.011: :00:34:56.011
00:38:16.377: :00:38:16.377
00:43:10.088: :00:43:10.087
00:48:16.060: :00:48:16.060
00:51:35.384: :00:51:35.301
00:54:27.055: :00:54:27.055
00:57:18.101: :00:57:18.101
01:00:27.916: :01:00:27.833
01:04:34.913: :01:04:34.913
01:08:04.497: :01:08:04.497
01:12:08.282: :01:12:08.282
01:15:09.964: :01:15:09.964
01:19:10.162: :01:19:10.162
01:22:16.515: :01:22:16.515
01:24:49.543: :01:24:49.543
01:27:01.341: :01:27:01.341
01:30:49.569: :01:30:49.569
01:33:00.450: :01:33:00.450

Download Links

CONTRASEÑA PARA DESCOMPRIMIR

APORTES NUEVOS

cinemaniahdd.com

APORTES VIEJOS

CinemaniaHD.org

COMPRA O RENUEVA TU PREMIUM DE UPLOADED DESDE EL SIGUIENTE LINK:

http://ul.to/ref/9821430

SI GUSTAS PUEDES SEGUIRNOS EN LAS REDES SOCIALES

Facebook

Twitter

Post Relacionados