Cuidado con los extraños (2016) 1080p Latino

Cuidado con los extraños [Better Watch Out] (2016) 1080p Latino; Mega Google Drive. No hay lugar más peligroso que un tranquilo barrio americano en una blanca noche navideña. Si no, que se lo pregunten a Ashley, la niñera del hijo de los Lerner, que deberá defender al pequeño de unos desconocidos que han irrumpido en la casa. Pronto, la chica descubrirá que no se trata de un asalto al uso.



Titulo original Better Watch Out
Audio Español Latino AC3 2.0 iTUNES - Ingles AC3 5.1 BLURAY
Calidad: 1080p Resolucion: 1920x804p Formato: MKV
Encoder: CinefiloCool Peso: 2.55 GiB Duracion: 1h 29m
Subtitulos: Español Latino SRT - Ingles SRT
  • No hay video embed

cuidado Con Los Extraños (2016) 1080p Latino.mkv
Format: Matroska
Format version: Version 4 / Version 2
File size : 2.55 GiB
Duration: 1 h 28 min
Overall bit rate: 4 111 kb/s
Movie name: CinemaniaHDD.Net
Encoded date: UTC 2018-10-09 23:57:35 / UTC 2018-10-09T02:40:44Z
Writing application : mkvmerge v25.0.0 ('Prog Noir') 64-bit
Writing library : libebml v1.3.6 + libmatroska v1.4.9 / Lavf57.7.2

Video
ID: 1
Format: AVC
Format/Info : Advanced Video Codec
Format profile: High@L4.1
Format settings : CABAC / 5 Ref Frames
Format settings, CABAC: Yes
Format settings, RefFrames: 5 frames
Codec ID: V_MPEG4/ISO/AVC
Duration: 1 h 28 min
Bit rate: 3 326 kb/s
Nominal bit rate: 3 500 kb/s
Width : 1 920 pixels
Height: 804 pixels
Display aspect ratio: 2.40:1
Frame rate mode : Constant
Frame rate: 24.000 FPS
Color space : YUV
Chroma subsampling: 4:2:0
Bit depth : 8 bits
Scan type : Progressive
Bits/(Pixel*Frame): 0.090
Stream size : 2.06 GiB (81%)
Title : HD1080p [Bluray]
Writing library : x264 core 155 r2893 b00bcaf
Encoding settings : cabac=1 / ref=5 / deblock=1:0:0 / analyse=0x3:0x113 / me=hex / subme=8 / psy=1 / psy_rd=1.00:0.00 / mixed_ref=1 / me_range=16 / chroma_me=1 / trellis=2 / 8x8dct=1 / cqm=0 / deadzone=21,11 / fast_pskip=1 / chroma_qp_offset=-2 / threads=25 / lookahead_threads=4 / sliced_threads=0 / nr=0 / decimate=1 / interlaced=0 / bluray_compat=0 / constrained_intra=0 / bframes=3 / b_pyramid=2 / b_adapt=1 / b_bias=0 / direct=3 / weightb=1 / open_gop=0 / weightp=2 / keyint=240 / keyint_min=24 / scenecut=40 / intra_refresh=0 / rc_lookahead=50 / rc=abr / mbtree=1 / bitrate=3500 / ratetol=1.0 / qcomp=0.60 / qpmin=0 / qpmax=69 / qpstep=4 / vbv_maxrate=62500 / vbv_bufsize=78125 / nal_hrd=none / filler=0 / ip_ratio=1.40 / aq=1:1.00
Default : Yes
Forced: No
Color range : Limited
Color primaries : BT.709
Transfer characteristics: BT.709
Matrix coefficients : BT.709
Statistics Tags Issue : mkvmerge v25.0.0 ('Prog Noir') 64-bit 2018-10-09 23:57:35 / mkvmerge v25.0.0 ('Prog Noir') 64-bit 2018-10-09 23:57:35 / UTC 2018-10-09T02:40:44Z
FromStats_BitRate : 3405357
FromStats_Duration: 01:28:50.209000000
FromStats_FrameCount: 127925
FromStats_StreamSize: 2268908618

Audio #1
ID: 2
Format: AC-3
Format/Info : Audio Coding 3
Format settings, Endianness : Big
Codec ID: A_AC3
Duration: 1 h 28 min
Bit rate mode : Constant
Bit rate: 256 kb/s
Channel(s): 2 channels
Channel positions : Front: L R
Sampling rate : 48.0 kHz
Frame rate: 31.250 FPS (1536 SPF)
Bit depth : 16 bits
Compression mode: Lossy
Stream size : 163 MiB (6%)
Title : AC3_2.0_Itunes_Esp
Language: Spanish
Service kind: Complete Main
Default : Yes
Forced: No
Statistics Tags Issue : mkvmerge v25.0.0 ('Prog Noir') 64-bit 2018-10-09 23:57:35 / mkvmerge v25.0.0 ('Prog Noir') 64-bit 2018-10-09 23:57:35 / UTC 2018-10-09T02:40:44Z
FromStats_BitRate : 256000
FromStats_Duration: 01:28:50.272000000
FromStats_FrameCount: 166571
FromStats_StreamSize: 170568704

Audio #2
ID: 3
Format: AC-3
Format/Info : Audio Coding 3
Format settings, Endianness : Big
Codec ID: A_AC3
Duration: 1 h 28 min
Bit rate mode : Constant
Bit rate: 448 kb/s
Channel(s): 6 channels
Channel positions : Front: L C R, Side: L R, LFE
Sampling rate : 48.0 kHz
Frame rate: 31.250 FPS (1536 SPF)
Bit depth : 16 bits
Compression mode: Lossy
Delay relative to video : 2 s 0 ms
Stream size : 285 MiB (11%)
Title : AC3_5.1_Bluray_Eng
Language: English
Service kind: Complete Main
Default : No
Forced: No
Statistics Tags Issue : mkvmerge v25.0.0 ('Prog Noir') 64-bit 2018-10-09 23:57:35 / mkvmerge v25.0.0 ('Prog Noir') 64-bit 2018-10-09 23:57:35 / UTC 2018-10-09T02:40:44Z
FromStats_BitRate : 448000
FromStats_Duration: 01:28:48.192000000
FromStats_FrameCount: 166506
FromStats_StreamSize: 298378752

Text #1
ID: 4
Format: UTF-8
Codec ID: S_TEXT/UTF8
Codec ID/Info : UTF-8 Plain Text
Title : Sub_Esp
Language: Spanish
Default : Yes
Forced: No
Statistics Tags Issue : mkvmerge v25.0.0 ('Prog Noir') 64-bit 2018-10-09 23:57:35 / mkvmerge v25.0.0 ('Prog Noir') 64-bit 2018-10-09 23:57:35 / UTC 2018-10-09T02:40:44Z
FromStats_BitRate : 61
FromStats_Duration: 01:24:22.062000000
FromStats_FrameCount: 1296
FromStats_StreamSize: 38634

Text #2
ID: 5
Format: UTF-8
Codec ID: S_TEXT/UTF8
Codec ID/Info : UTF-8 Plain Text
Title : Sub_Eng
Language: English
Default : No
Forced: No
Statistics Tags Issue : mkvmerge v25.0.0 ('Prog Noir') 64-bit 2018-10-09 23:57:35 / mkvmerge v25.0.0 ('Prog Noir') 64-bit 2018-10-09 23:57:35 / UTC 2018-10-09T02:40:44Z
FromStats_BitRate : 57
FromStats_Duration: 01:23:26.085000000
FromStats_FrameCount: 1007
FromStats_StreamSize: 36095

Menu
00:00:00.000: :00:00:00.000
00:06:29.625: :00:06:29.500
00:11:40.167: :00:11:40.000
00:21:11.000: :00:21:11.000
00:29:43.250: :00:29:43.083
00:33:19.208: :00:33:19.083
00:44:38.875: :00:44:38.708
00:54:49.833: :00:54:49.625
01:01:58.750: :01:01:58.542
01:09:15.542: :01:09:15.292
01:17:46.208: :01:17:46.000

Download Links

CONTRASEÑA PARA DESCOMPRIMIR

APORTES NUEVOS

cinemaniahdd.com

APORTES VIEJOS

CinemaniaHD.org

COMPRA O RENUEVA TU PREMIUM DE UPLOADED DESDE EL SIGUIENTE LINK:

http://ul.to/ref/9821430

SI GUSTAS PUEDES SEGUIRNOS EN LAS REDES SOCIALES

Facebook

Twitter

Post Relacionados