Dead Space Aftermath (2011) Full 1080p Subtitulado

Secuela del videojuego “Dead Space”, que servirá como puente al videojuego “Dead Space 2”. Trata sobre el desastre de la colonia Aegis VII y el equipo enviado tras los acontecimientos de la primera parte para tratar de recuperar algún fragmento de la Efigie.



Titulo Original Dead Space: Aftermath
Año 2010-12-31
Duracion 1h 17m
Director
Reparto , , , , , , , , , , , ,
Productora
Genero
Titulo original Dead Space: Aftermath
Audio Ingles DTS 5.1 BLURAY
Calidad: Full 1080p Resolucion: 1920x1080p Formato: MKV
Encoder: Dracarys Peso: 1.57 GiB Duracion: 1h 17m
Subtitulos: Español Latino PGS - Ingles PGS
  • No hay video embed

Format                                   : Matroska
Format version                           : Version 4 / Version 2
File size                                : 1.57 GiB
Duration                                 : 1 h 17 min
Overall bit rate                         : 2 901 kb/s
Movie name                               : CinemaniaHDD.net
Encoded date                             : UTC 2018-10-10 18:36:41 / UTC 2018-09-30T12:05:43Z
Writing application                      : mkvmerge v15.0.0 ('Duel with the Devil') 64-bit
Writing library                          : libebml v1.3.5 + libmatroska v1.4.5 / Lavf57.7.2

Video
ID                                       : 1
Format                                   : AVC
Format/Info                              : Advanced Video Codec
Format profile                           : High@L4.1
Format settings                          : CABAC / 4 Ref Frames
Format settings, CABAC                   : Yes
Format settings, RefFrames               : 4 frames
Codec ID                                 : V_MPEG4/ISO/AVC
Duration                                 : 1 h 17 min
Bit rate                                 : 2 203 kb/s
Width                                    : 1 920 pixels
Height                                   : 1 080 pixels
Display aspect ratio                     : 16:9
Frame rate mode                          : Constant
Frame rate                               : 23.976 (24000/1001) FPS
Color space                              : YUV
Chroma subsampling                       : 4:2:0
Bit depth                                : 8 bits
Scan type                                : Progressive
Bits/(Pixel*Frame)                       : 0.044
Stream size                              : 1.20 GiB (76%)
Writing library                          : x264 core 148 r2708 86b7198
Encoding settings                        : cabac=1 / ref=4 / deblock=1:0:0 / analyse=0x3:0x133 / me=esa / subme=10 / psy=1 / psy_rd=1.00:0.00 / mixed_ref=1 / me_range=24 / chroma_me=1 / trellis=2 / 8x8dct=1 / cqm=0 / deadzone=21,11 / fast_pskip=1 / chroma_qp_offset=-2 / threads=34 / lookahead_threads=5 / sliced_threads=0 / nr=0 / decimate=1 / interlaced=0 / bluray_compat=0 / constrained_intra=0 / bframes=8 / b_pyramid=2 / b_adapt=2 / b_bias=0 / direct=3 / weightb=1 / open_gop=0 / weightp=2 / keyint=240 / keyint_min=24 / scenecut=40 / intra_refresh=0 / rc_lookahead=60 / rc=crf / mbtree=1 / crf=20.0 / qcomp=0.60 / qpmin=0 / qpmax=69 / qpstep=4 / vbv_maxrate=62500 / vbv_bufsize=78125 / crf_max=0.0 / nal_hrd=none / filler=0 / ip_ratio=1.40 / aq=1:1.00
Language                                 : English
Default                                  : Yes
Forced                                   : No
Color range                              : Limited
Color primaries                          : BT.709
Transfer characteristics                 : BT.709
Matrix coefficients                      : BT.709
Statistics Tags Issue                    : mkvmerge v15.0.0 ('Duel with the Devil') 64-bit 2018-10-10 18:36:41 / mkvmerge v15.0.0 ('Duel with the Devil') 64-bit 2018-10-10 18:36:41 / UTC 2018-09-30T12:05:43Z
FromStats_BitRate                        : 2222043
FromStats_Duration                       : 01:17:39.572000000
FromStats_FrameCount                     : 111718
FromStats_StreamSize                     : 1294221420

Audio
ID                                       : 2
Format                                   : AC-3
Format/Info                              : Audio Coding 3
Format settings, Endianness              : Big
Codec ID                                 : A_AC3
Duration                                 : 1 h 17 min
Bit rate mode                            : Constant
Bit rate                                 : 640 kb/s
Channel(s)                               : 6 channels
Channel positions                        : Front: L C R, Side: L R, LFE
Sampling rate                            : 48.0 kHz
Frame rate                               : 31.250 FPS (1536 SPF)
Bit depth                                : 16 bits
Compression mode                         : Lossy
Stream size                              : 356 MiB (22%)
Language                                 : English
Service kind                             : Complete Main
Default                                  : Yes
Forced                                   : No
Statistics Tags Issue                    : mkvmerge v15.0.0 ('Duel with the Devil') 64-bit 2018-10-10 18:36:41 / mkvmerge v15.0.0 ('Duel with the Devil') 64-bit 2018-10-10 18:36:41 / UTC 2018-09-30T12:05:43Z
FromStats_BitRate                        : 640000
FromStats_Duration                       : 01:17:39.616000000
FromStats_FrameCount                     : 145613
FromStats_StreamSize                     : 372769280

Text #1
ID                                       : 3
Format                                   : PGS
Muxing mode                              : zlib
Codec ID                                 : S_HDMV/PGS
Codec ID/Info                            : Picture based subtitle format used on BDs/HD-DVDs
Language                                 : English
Default                                  : No
Forced                                   : No
Statistics Tags Issue                    : mkvmerge v15.0.0 ('Duel with the Devil') 64-bit 2018-10-10 18:36:41 / mkvmerge v15.0.0 ('Duel with the Devil') 64-bit 2018-10-10 18:36:41 / UTC 2018-09-30T12:05:43Z
FromStats_BitRate                        : 75365
FromStats_Duration                       : 01:09:51.771000000
FromStats_FrameCount                     : 2739
FromStats_StreamSize                     : 39489346

Text #2
ID                                       : 4
Format                                   : PGS
Muxing mode                              : zlib
Codec ID                                 : S_HDMV/PGS
Codec ID/Info                            : Picture based subtitle format used on BDs/HD-DVDs
Language                                 : Spanish
Default                                  : Yes
Forced                                   : Yes
Statistics Tags Issue                    : mkvmerge v15.0.0 ('Duel with the Devil') 64-bit 2018-10-10 18:36:41 / mkvmerge v15.0.0 ('Duel with the Devil') 64-bit 2018-10-10 18:36:41 / UTC 2018-09-30T12:05:43Z
FromStats_BitRate                        : 70223
FromStats_Duration                       : 01:13:20.604000000
FromStats_FrameCount                     : 2602
FromStats_StreamSize                     : 38628100

Menu
00:00:00.000                             : :Chapter 1
00:05:14.189                             : :Chapter 2
00:15:36.811                             : :Chapter 3
00:26:18.660                             : :Chapter 4
00:38:58.336                             : :Chapter 5
00:50:55.511                             : :Chapter 6
01:06:36.784                             : :Chapter 7
01:11:29.744                             : :Chapter 8

 

Download Links

CONTRASEÑA PARA DESCOMPRIMIR

APORTES NUEVOS

cinemaniahdd.com

APORTES VIEJOS

CinemaniaHD.org

COMPRA O RENUEVA TU PREMIUM DE UPLOADED DESDE EL SIGUIENTE LINK:

http://ul.to/ref/9821430

SI GUSTAS PUEDES SEGUIRNOS EN LAS REDES SOCIALES

Facebook

Twitter

Post Relacionados