Death Race 2: El origen (2010) 1080p Latino

Death Race 2 : El Origen (2010) 1080p Latino. Mega, Google Drive. Death Race 2 tiene lugar en un futuro muy próximo, cuando la economía de Estados Unidos comienza a declinar y la delincuencia violenta inicia una espiral fuera de control. Para contener a la población penal, se crea una serie de cárceles privadas, gobernadas por bandas, asesinos a sangre fría y sociópatas. La peor de estas cárceles es Terminal Island, donde condenado por el asesinato de unos policías llega Carl Lucas, el que será el auténtico protagonista del último reality show de la Carrera de la Muerte. El ganador, si es que alguien logra sobrevivir, tiene como premio la libertad.



Titulo original Death Race 2
Audio Español Latino AC3 5.1 BLURAY - Ingles AC3 5.1 BLURAY
Calidad: 1080p Resolucion: 1920x1080p Formato: MKV
Encoder: CinefiloCool Peso: 2.99 GiB Duracion: 1h 36m
Subtitulos: Español Latino SRT - Ingles SRT
  • No hay video embed

La Carrera de La Muerte 2 (2010) 1080p Latino.mkv
Format: Matroska
Format version: Version 4 / Version 2
File size : 2.99 GiB
Duration: 1 h 40 min
Overall bit rate: 4 272 kb/s
Movie name: CinemaniaHDD.Net
Encoded date: UTC 2018-10-06 03:37:10 / UTC 2018-10-05T13:03:20Z
Writing application : mkvmerge v25.0.0 ('Prog Noir') 64-bit
Writing library : libebml v1.3.6 + libmatroska v1.4.9 / Lavf57.7.2

Video
ID: 1
Format: AVC
Format/Info : Advanced Video Codec
Format profile: High@L4.1
Format settings : CABAC / 4 Ref Frames
Format settings, CABAC: Yes
Format settings, RefFrames: 4 frames
Codec ID: V_MPEG4/ISO/AVC
Duration: 1 h 40 min
Bit rate: 3 500 kb/s
Width : 1 920 pixels
Height: 1 080 pixels
Display aspect ratio: 16:9
Frame rate mode : Constant
Frame rate: 23.976 (24000/1001) FPS
Color space : YUV
Chroma subsampling: 4:2:0
Bit depth : 8 bits
Scan type : Progressive
Bits/(Pixel*Frame): 0.070
Stream size : 2.35 GiB (79%)
Title : HD1080p [Bluray]
Writing library : x264 core 155 r2893 b00bcaf
Encoding settings : cabac=1 / ref=4 / deblock=1:0:0 / analyse=0x3:0x133 / me=umh / subme=9 / psy=1 / psy_rd=1.00:0.00 / mixed_ref=1 / me_range=16 / chroma_me=1 / trellis=2 / 8x8dct=1 / cqm=0 / deadzone=21,11 / fast_pskip=1 / chroma_qp_offset=-2 / threads=34 / lookahead_threads=2 / sliced_threads=0 / nr=0 / decimate=1 / interlaced=0 / bluray_compat=0 / constrained_intra=0 / bframes=3 / b_pyramid=2 / b_adapt=2 / b_bias=0 / direct=3 / weightb=1 / open_gop=0 / weightp=2 / keyint=240 / keyint_min=24 / scenecut=40 / intra_refresh=0 / rc_lookahead=60 / rc=abr / mbtree=1 / bitrate=3500 / ratetol=1.0 / qcomp=0.60 / qpmin=0 / qpmax=69 / qpstep=4 / vbv_maxrate=62500 / vbv_bufsize=78125 / nal_hrd=none / filler=0 / ip_ratio=1.40 / aq=1:1.00
Default : Yes
Forced: No
Color range : Limited
Color primaries : BT.709
Transfer characteristics: BT.709
Matrix coefficients : BT.709
Statistics Tags Issue : mkvmerge v25.0.0 ('Prog Noir') 64-bit 2018-10-06 03:37:10 / mkvmerge v25.0.0 ('Prog Noir') 64-bit 2018-10-06 03:37:10 / UTC 2018-10-05T13:03:20Z
FromStats_BitRate : 3437727
FromStats_Duration: 01:40:19.013000000
FromStats_FrameCount: 144312
FromStats_StreamSize: 2586465806

Audio #1
ID: 2
Format: AC-3
Format/Info : Audio Coding 3
Format settings, Endianness : Big
Codec ID: A_AC3
Duration: 1 h 40 min
Bit rate mode : Constant
Bit rate: 384 kb/s
Channel(s): 6 channels
Channel positions : Front: L C R, Side: L R, LFE
Sampling rate : 48.0 kHz
Frame rate: 31.250 FPS (1536 SPF)
Bit depth : 16 bits
Compression mode: Lossy
Delay relative to video : -5 ms
Stream size : 276 MiB (9%)
Title : AC3_5.1_Bluray_Esp
Language: Spanish
Service kind: Complete Main
Default : Yes
Forced: No
Statistics Tags Issue : mkvmerge v25.0.0 ('Prog Noir') 64-bit 2018-10-06 03:37:10 / mkvmerge v25.0.0 ('Prog Noir') 64-bit 2018-10-06 03:37:10 / UTC 2018-10-05T13:03:20Z
FromStats_BitRate : 384000
FromStats_Duration: 01:40:19.040000000
FromStats_FrameCount: 188095
FromStats_StreamSize: 288913920

Audio #2
ID: 3
Format: AC-3
Format/Info : Audio Coding 3
Format settings, Endianness : Big
Codec ID: A_AC3
Duration: 1 h 40 min
Bit rate mode : Constant
Bit rate: 448 kb/s
Channel(s): 6 channels
Channel positions : Front: L C R, Side: L R, LFE
Sampling rate : 48.0 kHz
Frame rate: 31.250 FPS (1536 SPF)
Bit depth : 16 bits
Compression mode: Lossy
Stream size : 321 MiB (10%)
Title : AC3_5.1_Bluray_Eng
Language: English
Service kind: Complete Main
Default : No
Forced: No
Statistics Tags Issue : mkvmerge v25.0.0 ('Prog Noir') 64-bit 2018-10-06 03:37:10 / mkvmerge v25.0.0 ('Prog Noir') 64-bit 2018-10-06 03:37:10 / UTC 2018-10-05T13:03:20Z
FromStats_BitRate : 448000
FromStats_Duration: 01:40:19.008000000
FromStats_FrameCount: 188094
FromStats_StreamSize: 337064448

Text #1
ID: 4
Format: UTF-8
Codec ID: S_TEXT/UTF8
Codec ID/Info : UTF-8 Plain Text
Title : Sub_Esp
Language: Spanish
Default : No
Forced: No
Statistics Tags Issue : mkvmerge v25.0.0 ('Prog Noir') 64-bit 2018-10-06 03:37:10 / mkvmerge v25.0.0 ('Prog Noir') 64-bit 2018-10-06 03:37:10 / UTC 2018-10-05T13:03:20Z
FromStats_BitRate : 47
FromStats_Duration: 01:39:45.198000000
FromStats_FrameCount: 1022
FromStats_StreamSize: 35333

Text #2
ID: 5
Format: UTF-8
Codec ID: S_TEXT/UTF8
Codec ID/Info : UTF-8 Plain Text
Title : Sub_Eng
Language: English
Default : No
Forced: No
Statistics Tags Issue : mkvmerge v25.0.0 ('Prog Noir') 64-bit 2018-10-06 03:37:10 / mkvmerge v25.0.0 ('Prog Noir') 64-bit 2018-10-06 03:37:10 / UTC 2018-10-05T13:03:20Z
FromStats_BitRate : 46
FromStats_Duration: 01:38:23.980000000
FromStats_FrameCount: 1004
FromStats_StreamSize: 34076

Menu
00:00:00.000: en:Killer Competition
00:03:45.058: en:Honest Living
00:08:21.167: en:Behind Bars
00:15:46.320: en:Never a Dull Day
00:19:26.832: en:Keep the Legend Alive
00:25:23.313: en:Getting Acquainted
00:29:30.435: en:Stage 1
00:34:44.665: en:Start Transmission
00:37:43.761: en:Activate Swords & Shields
00:45:32.771: en:Play My Game
00:49:31.551: en:Looking for Me?
00:52:47.205: en:Stage 2
00:58:48.107: en:On The Offense
01:05:20.207: en:Release the Dreadnought
01:12:09.491: en:Stage 3
01:17:39.696: en:A Little Inspiration
01:24:38.281: en:It's Party Time
01:26:56.794: en:Off Track
01:30:23.292: en:All That Matters
01:36:42.046: en:End Titles

Download Links

CONTRASEÑA PARA DESCOMPRIMIR

APORTES NUEVOS

cinemaniahdd.com

APORTES VIEJOS

CinemaniaHD.org

COMPRA O RENUEVA TU PREMIUM DE UPLOADED DESDE EL SIGUIENTE LINK:

http://ul.to/ref/9821430

SI GUSTAS PUEDES SEGUIRNOS EN LAS REDES SOCIALES

Facebook

Twitter

Post Relacionados