Death Race 2050 (2017) 1080p Latino

Death Race 2050 (2017) 1080p Latino. Mega, Google Drive. En un futuro no muy distante, America está controlada por un poderoso gobierno corporativo que mantiene a las masas aplacadas gracias a un entretenimiento de realidad virtual violento. El evento del año es la Carrera de la Muerte, donde los conductores compiten en una carrera a través del país en la que obtienen puntos atropellando a los peatones y acabando con sus contrincantes. El campeón actual, y el favorito del público, es mitad hombre, mitad máquina. Su nombre es Frankenstein, pero lo que no sabe es que ha tomado como copiloto a una espía rebelde.



Titulo original Death Race 2050
Audio Español Latino AC3 5.1 BLURAY - Ingles AC3 5.1 BLURAY
Calidad: 1080p Resolucion: 1920x1080p Formato: MKV
Encoder: CinefiloCool Peso: 2.84 GiB Duracion: 1h 33m
Subtitulos: Español Latino SRT - Ingles SRT
  • No hay video embed

Death Race 2050 (2017) 1080p Latino.mkv
Format: Matroska
Format version: Version 4 / Version 2
File size : 2.85 GiB
Duration: 1 h 32 min
Overall bit rate: 4 399 kb/s
Movie name: CinemaniaHDD.Net
Encoded date: UTC 2018-10-07 17:47:59 / UTC 2018-10-07T16:25:00Z
Writing application : mkvmerge v25.0.0 ('Prog Noir') 64-bit
Writing library : libebml v1.3.6 + libmatroska v1.4.9 / Lavf57.7.2

Video
ID: 1
Format: AVC
Format/Info : Advanced Video Codec
Format profile: High@L4.1
Format settings : CABAC / 4 Ref Frames
Format settings, CABAC: Yes
Format settings, RefFrames: 4 frames
Codec ID: V_MPEG4/ISO/AVC
Duration: 1 h 32 min
Bit rate: 3 500 kb/s
Width : 1 920 pixels
Height: 1 080 pixels
Display aspect ratio: 16:9
Frame rate mode : Constant
Frame rate: 23.976 (24000/1001) FPS
Color space : YUV
Chroma subsampling: 4:2:0
Bit depth : 8 bits
Scan type : Progressive
Bits/(Pixel*Frame): 0.070
Stream size : 2.21 GiB (78%)
Title : HD1080p [Bluray]
Writing library : x264 core 155 r2893 b00bcaf
Encoding settings : cabac=1 / ref=4 / deblock=1:0:0 / analyse=0x3:0x113 / me=hex / subme=8 / psy=1 / psy_rd=1.00:0.00 / mixed_ref=1 / me_range=16 / chroma_me=1 / trellis=2 / 8x8dct=1 / cqm=0 / deadzone=21,11 / fast_pskip=1 / chroma_qp_offset=-2 / threads=34 / lookahead_threads=5 / sliced_threads=0 / nr=0 / decimate=1 / interlaced=0 / bluray_compat=0 / constrained_intra=0 / bframes=3 / b_pyramid=2 / b_adapt=1 / b_bias=0 / direct=3 / weightb=1 / open_gop=0 / weightp=2 / keyint=240 / keyint_min=24 / scenecut=40 / intra_refresh=0 / rc_lookahead=50 / rc=abr / mbtree=1 / bitrate=3500 / ratetol=1.0 / qcomp=0.60 / qpmin=0 / qpmax=69 / qpstep=4 / vbv_maxrate=62500 / vbv_bufsize=78125 / nal_hrd=none / filler=0 / ip_ratio=1.40 / aq=1:1.00
Default : Yes
Forced: No
Color range : Limited
Color primaries : BT.709
Transfer characteristics: BT.709
Matrix coefficients : BT.709
Statistics Tags Issue : mkvmerge v25.0.0 ('Prog Noir') 64-bit 2018-10-07 17:47:59 / mkvmerge v25.0.0 ('Prog Noir') 64-bit 2018-10-07 17:47:59 / UTC 2018-10-07T16:25:00Z
FromStats_BitRate : 3500390
FromStats_Duration: 01:32:42.557000000
FromStats_FrameCount: 133368
FromStats_StreamSize: 2433890218

Audio #1
ID: 2
Format: AC-3
Format/Info : Audio Coding 3
Format settings, Endianness : Big
Codec ID: A_AC3
Duration: 1 h 32 min
Bit rate mode : Constant
Bit rate: 448 kb/s
Channel(s): 6 channels
Channel positions : Front: L C R, Side: L R, LFE
Sampling rate : 48.0 kHz
Frame rate: 31.250 FPS (1536 SPF)
Bit depth : 16 bits
Compression mode: Lossy
Delay relative to video : -5 ms
Stream size : 297 MiB (10%)
Title : AC3_5.1_Bluray_Esp
Language: Spanish
Service kind: Complete Main
Default : Yes
Forced: No
Statistics Tags Issue : mkvmerge v25.0.0 ('Prog Noir') 64-bit 2018-10-07 17:47:59 / mkvmerge v25.0.0 ('Prog Noir') 64-bit 2018-10-07 17:47:59 / UTC 2018-10-07T16:25:00Z
FromStats_BitRate : 448000
FromStats_Duration: 01:32:42.592000000
FromStats_FrameCount: 173831
FromStats_StreamSize: 311505152

Audio #2
ID: 3
Format: AC-3
Format/Info : Audio Coding 3
Format settings, Endianness : Big
Codec ID: A_AC3
Duration: 1 h 32 min
Bit rate mode : Constant
Bit rate: 448 kb/s
Channel(s): 6 channels
Channel positions : Front: L C R, Side: L R, LFE
Sampling rate : 48.0 kHz
Frame rate: 31.250 FPS (1536 SPF)
Bit depth : 16 bits
Compression mode: Lossy
Stream size : 297 MiB (10%)
Title : AC3_5.1_Bluray_Eng
Language: English
Service kind: Complete Main
Default : No
Forced: No
Statistics Tags Issue : mkvmerge v25.0.0 ('Prog Noir') 64-bit 2018-10-07 17:47:59 / mkvmerge v25.0.0 ('Prog Noir') 64-bit 2018-10-07 17:47:59 / UTC 2018-10-07T16:25:00Z
FromStats_BitRate : 448000
FromStats_Duration: 01:32:42.560000000
FromStats_FrameCount: 173830
FromStats_StreamSize: 311503360

Text #1
ID: 4
Format: UTF-8
Codec ID: S_TEXT/UTF8
Codec ID/Info : UTF-8 Plain Text
Title : Sub_Esp
Language: Spanish
Default : No
Forced: No
Statistics Tags Issue : mkvmerge v25.0.0 ('Prog Noir') 64-bit 2018-10-07 17:47:59 / mkvmerge v25.0.0 ('Prog Noir') 64-bit 2018-10-07 17:47:59 / UTC 2018-10-07T16:25:00Z
FromStats_BitRate : 59
FromStats_Duration: 01:28:09.749000000
FromStats_FrameCount: 1158
FromStats_StreamSize: 39114

Text #2
ID: 5
Format: UTF-8
Codec ID: S_TEXT/UTF8
Codec ID/Info : UTF-8 Plain Text
Title : Sub_Eng
Language: English
Default : No
Forced: No
Statistics Tags Issue : mkvmerge v25.0.0 ('Prog Noir') 64-bit 2018-10-07 17:47:59 / mkvmerge v25.0.0 ('Prog Noir') 64-bit 2018-10-07 17:47:59 / UTC 2018-10-07T16:25:00Z
FromStats_BitRate : 55
FromStats_Duration: 01:28:15.452000000
FromStats_FrameCount: 1154
FromStats_StreamSize: 37025

Menu
00:00:00.000: :00:00:00.000
00:04:25.474: :00:04:25.474
00:08:18.206: :00:08:18.206
00:12:29.082: :00:12:29.082
00:17:51.529: :00:17:51.529
00:21:22.114: :00:21:22.114
00:26:07.941: :00:26:07.941
00:29:09.748: :00:29:09.748
00:32:25.652: :00:32:25.652
00:37:11.521: :00:37:11.521
00:43:21.933: :00:43:21.933
00:50:56.095: :00:50:56.095
00:56:25.549: :00:56:25.549
01:01:42.616: :01:01:42.616
01:05:45.400: :01:05:45.400
01:10:50.371: :01:10:50.371
01:15:18.222: :01:15:18.222
01:21:26.882: :01:21:26.882
01:24:49.668: :01:24:49.668
01:28:54.830: :01:28:54.829

Download Links

CONTRASEÑA PARA DESCOMPRIMIR

APORTES NUEVOS

cinemaniahdd.com

APORTES VIEJOS

CinemaniaHD.org

COMPRA O RENUEVA TU PREMIUM DE UPLOADED DESDE EL SIGUIENTE LINK:

http://ul.to/ref/9821430

SI GUSTAS PUEDES SEGUIRNOS EN LAS REDES SOCIALES

Facebook

Twitter

Post Relacionados