Death Race 4: Beyond Anarchy (2018) WEB-DL 1080p Subtitulado

death-race-beyond-anarchy-41988-poster.jpg

Danny Trejo regresa como el despiadado corredor de apuestas, Goldberg, en la carrera de muerte más salvaje y sangrienta de la historia. Después de un ataque fallido contra el preso y el legendario conductor, Frankenstein, el especialista en Operaciones Especiales Negro Connor Gibson (McGowan) se infiltra en una prisión federal súper máxima con un objetivo: ingresar en la carrera de la muerte inmoral e ilegal y derribar a Frankenstein. Connor solicita la ayuda de Baltimore Bob (Glover) y Listas (Koehler), y se enamora inesperadamente de la belleza de la camarera, Jane (Marzano). Connor tendrá que luchar por algo más que su vida en este mundo brutal sin guardias, sin reglas, sin rastros y sin miedo.



Titulo original Death Race 4: Beyond Anarchy
Audio Ingles AC3 5.1 iTunes
Calidad: 1080p Resolucion: 1920x1080 Formato: MKV
Encoder: Lpratto Peso: 5.11 GB Duracion: 1h 51m
Subtitulos: Español Latino SRT
  • No hay video embed

Format: Matroska
Format version: Version 4 / Version 2
File size : 5.11 GiB
Duration: 1 h 50 min
Overall bit rate mode : Variable
Overall bit rate: 6 600 kb/s
Movie name: CinemaniaHDD.com
Encoded date: UTC 2018-03-15 08:44:43
Writing application : mkvmerge v15.0.0 ('Duel with the Devil') 64-bit
Writing library : libebml v1.3.5 + libmatroska v1.4.5
 
Video
ID: 1
Format: AVC
Format/Info : Advanced Video Codec
Format profile: High@L4.1
Format settings, CABAC: Yes
Format settings, RefFrames: 4 frames
Codec ID: V_MPEG4/ISO/AVC
Duration: 1 h 50 min
Bit rate mode : Variable
Bit rate: 6 232 kb/s
Maximum bit rate: 49.6 Mb/s
Width : 1 920 pixels
Height: 1 080 pixels
Display aspect ratio: 16:9
Frame rate mode : Constant
Frame rate: 29.970 (30000/1001) FPS
Standard: Component
Color space : YUV
Chroma subsampling: 4:2:0
Bit depth : 8 bits
Scan type : Progressive
Bits/(Pixel*Frame): 0.100
Stream size : 4.81 GiB (94%)
Writing library : x264 core 148
Encoding settings : cabac=1 / ref=4 / deblock=1:0:0 / analyse=0x3:0x113 / me=hex / subme=7 / psy=1 / psy_rd=1.00:0.00 / mixed_ref=1 / me_range=16 / chroma_me=1 / trellis=1 / 8x8dct=1 / cqm=1 / deadzone=21,11 / fast_pskip=1 / chroma_qp_offset=-2 / threads=34 / lookahead_threads=5 / sliced_threads=0 / slices=1 / nr=0 / decimate=1 / interlaced=0 / minigop=0 / stitchable=1 / constrained_intra=0 / bframes=3 / b_pyramid=0 / b_adapt=1 / b_bias=0 / direct=1 / weightb=1 / open_gop=1 / weightp=2 / keyint=250 / keyint_min=25 / scenecut=40 / intra_refresh=0 / rc_lookahead=40 / rc=abr / mbtree=1 / bitrate=6232 / ratetol=1.0 / qcomp=0.60 / qpmin=3 / qpmax=69 / qpstep=4 / vbv_maxrate=49600 / vbv_bufsize=49600 / nal_hrd=vbr / filler=0 / ip_ratio=1.40 / aq=1:1.00
Default : Yes
Forced: No
Color range : Limited
Color primaries : BT.709
Transfer characteristics: BT.709
Matrix coefficients : BT.709
 
Audio
ID: 2
Format: AC-3
Format/Info : Audio Coding 3
Format settings, Endianness : Big
Codec ID: A_AC3
Duration: 1 h 50 min
Bit rate mode : Constant
Bit rate: 384 kb/s
Channel(s): 6 channels
Channel positions : Front: L C R, Side: L R, LFE
Sampling rate : 48.0 kHz
Frame rate: 31.250 FPS (1536 SPF)
Bit depth : 16 bits
Compression mode: Lossy
Stream size : 304 MiB (6%)
Language: English
Service kind: Complete Main
Default : Yes
Forced: No
 
Text
ID: 3
Format: UTF-8
Codec ID: S_TEXT/UTF8
Codec ID/Info : UTF-8 Plain Text
Duration: 1 h 46 min
Bit rate: 40 b/s
Count of elements : 899
Stream size : 31.8 KiB (0%)
Language: Spanish
Default : Yes
Forced: No

Download Links

CONTRASEÑA PARA DESCOMPRIMIR

APORTES NUEVOS

cinemaniahdd.com

APORTES VIEJOS

CinemaniaHD.org

COMPRA O RENUEVA TU PREMIUM DE UPLOADED DESDE EL SIGUIENTE LINK:

http://ul.to/ref/9821430

SI GUSTAS PUEDES SEGUIRNOS EN LAS REDES SOCIALES

Facebook

Twitter

Post Relacionados