Death Race: Beyond Anarchy (2018) 1080p Latino

Death Race 4 : Beyond Anarchy (2018) 1080p Latino. Mega, Google Drive. Danny Trejo regresa como el despiadado corredor de apuestas, Goldberg, en la carrera de muerte más salvaje y sangrienta de la historia. Después de un ataque fallido contra el preso y el legendario conductor, Frankenstein, el especialista en Operaciones Especiales Negro Connor Gibson (McGowan) se infiltra en una prisión federal súper máxima con un objetivo: ingresar en la carrera de la muerte inmoral e ilegal y derribar a Frankenstein. Connor solicita la ayuda de Baltimore Bob (Glover) y Listas (Koehler), y se enamora inesperadamente de la belleza de la camarera, Jane (Marzano). Connor tendrá que luchar por algo más que su vida en este mundo brutal sin guardias, sin reglas, sin rastros y sin miedo.



Titulo original Death Race 4: Beyond Anarchy
Audio Español Latino AC3 5.1 DVD - Ingles AC3 5.1 BLURAY
Calidad: 1080p Resolucion: 1920x1080p Formato: MKV
Encoder: chesse92 Peso: 3.33 GiB Duracion: 1h 51m
Subtitulos: Español Latino SRT
  • No hay video embed

Death Race 4 Beyond Anarchy (2018) 1080p Latino.mkv
Format: Matroska
Format version: Version 4 / Version 2
File size : 3.33 GiB
Duration: 1 h 50 min
Overall bit rate: 4 300 kb/s
Movie name: CinemaniaHDD.Net
Encoded date: UTC 2018-10-05 03:26:45 / UTC 2018-10-05T00:23:59Z
Writing application : mkvmerge v25.0.0 ('Prog Noir') 64-bit
Writing library : libebml v1.3.6 + libmatroska v1.4.9 / Lavf57.7.2

Video
ID: 1
Format: AVC
Format/Info : Advanced Video Codec
Format profile: High@L4.1
Format settings : CABAC / 4 Ref Frames
Format settings, CABAC: Yes
Format settings, RefFrames: 4 frames
Codec ID: V_MPEG4/ISO/AVC
Duration: 1 h 50 min
Bit rate: 3 500 kb/s
Width : 1 920 pixels
Height: 1 080 pixels
Display aspect ratio: 16:9
Frame rate mode : Constant
Frame rate: 23.976 (24000/1001) FPS
Color space : YUV
Chroma subsampling: 4:2:0
Bit depth : 8 bits
Scan type : Progressive
Bits/(Pixel*Frame): 0.070
Stream size : 2.62 GiB (79%)
Title : HD1080p [Bluray]
Writing library : x264 core 155 r2893 b00bcaf
Encoding settings : cabac=1 / ref=4 / deblock=1:0:0 / analyse=0x3:0x113 / me=hex / subme=8 / psy=1 / psy_rd=1.00:0.00 / mixed_ref=1 / me_range=16 / chroma_me=1 / trellis=2 / 8x8dct=1 / cqm=0 / deadzone=21,11 / fast_pskip=1 / chroma_qp_offset=-2 / threads=34 / lookahead_threads=5 / sliced_threads=0 / nr=0 / decimate=1 / interlaced=0 / bluray_compat=0 / constrained_intra=0 / bframes=3 / b_pyramid=2 / b_adapt=1 / b_bias=0 / direct=3 / weightb=1 / open_gop=0 / weightp=2 / keyint=240 / keyint_min=24 / scenecut=40 / intra_refresh=0 / rc_lookahead=50 / rc=abr / mbtree=1 / bitrate=3500 / ratetol=1.0 / qcomp=0.60 / qpmin=0 / qpmax=69 / qpstep=4 / vbv_maxrate=62500 / vbv_bufsize=78125 / nal_hrd=none / filler=0 / ip_ratio=1.40 / aq=1:1.00
Default : Yes
Forced: No
Color range : Limited
Color primaries : BT.709
Transfer characteristics: BT.709
Matrix coefficients : BT.709
Statistics Tags Issue : mkvmerge v25.0.0 ('Prog Noir') 64-bit 2018-10-05 03:26:45 / mkvmerge v25.0.0 ('Prog Noir') 64-bit 2018-10-05 03:26:45 / UTC 2018-10-05T00:23:59Z
FromStats_BitRate : 3465866
FromStats_Duration: 01:50:58.485000000
FromStats_FrameCount: 159644
FromStats_StreamSize: 2884677580

Audio #1
ID: 2
Format: AC-3
Format/Info : Audio Coding 3
Format settings, Endianness : Big
Codec ID: A_AC3
Duration: 1 h 50 min
Bit rate mode : Constant
Bit rate: 384 kb/s
Channel(s): 6 channels
Channel positions : Front: L C R, Side: L R, LFE
Sampling rate : 48.0 kHz
Frame rate: 31.250 FPS (1536 SPF)
Bit depth : 16 bits
Compression mode: Lossy
Delay relative to video : -5 ms
Stream size : 305 MiB (9%)
Title : AC3_5.1_DVD_Esp
Language: Spanish
Service kind: Complete Main
Default : Yes
Forced: No
Statistics Tags Issue : mkvmerge v25.0.0 ('Prog Noir') 64-bit 2018-10-05 03:26:45 / mkvmerge v25.0.0 ('Prog Noir') 64-bit 2018-10-05 03:26:45 / UTC 2018-10-05T00:23:59Z
FromStats_BitRate : 384000
FromStats_Duration: 01:50:58.560000000
FromStats_FrameCount: 208080
FromStats_StreamSize: 319610880

Audio #2
ID: 3
Format: AC-3
Format/Info : Audio Coding 3
Format settings, Endianness : Big
Codec ID: A_AC3
Duration: 1 h 50 min
Bit rate mode : Constant
Bit rate: 448 kb/s
Channel(s): 6 channels
Channel positions : Front: L C R, Side: L R, LFE
Sampling rate : 48.0 kHz
Frame rate: 31.250 FPS (1536 SPF)
Bit depth : 16 bits
Compression mode: Lossy
Stream size : 356 MiB (10%)
Title : AC3_5.1_Bluray_Eng
Language: English
Service kind: Complete Main
Default : No
Forced: No
Statistics Tags Issue : mkvmerge v25.0.0 ('Prog Noir') 64-bit 2018-10-05 03:26:45 / mkvmerge v25.0.0 ('Prog Noir') 64-bit 2018-10-05 03:26:45 / UTC 2018-10-05T00:23:59Z
FromStats_BitRate : 448000
FromStats_Duration: 01:50:58.464000000
FromStats_FrameCount: 208077
FromStats_StreamSize: 372873984

Text
ID: 4
Format: UTF-8
Codec ID: S_TEXT/UTF8
Codec ID/Info : UTF-8 Plain Text
Title : Sub_Esp
Language: Spanish
Default : No
Forced: No
Statistics Tags Issue : mkvmerge v25.0.0 ('Prog Noir') 64-bit 2018-10-05 03:26:45 / mkvmerge v25.0.0 ('Prog Noir') 64-bit 2018-10-05 03:26:45 / UTC 2018-10-05T00:23:59Z
FromStats_BitRate : 38
FromStats_Duration: 01:46:38.245000000
FromStats_FrameCount: 857
FromStats_StreamSize: 30956

Menu
00:00:00.000: :00:00:00.000
00:08:12.367: :00:08:12.242
00:15:38.438: :00:15:38.437
00:20:44.910: :00:20:44.910
00:25:46.420: :00:25:46.336
00:29:21.009: :00:29:20.968
00:35:49.564: :00:35:49.564
00:41:29.112: :00:41:29.112
00:47:44.445: :00:47:44.403
00:52:28.437: :00:52:28.437
00:56:38.186: :00:56:38.186
01:00:13.443: :01:00:13.443
01:07:00.642: :01:07:00.642
01:12:50.199: :01:12:50.199
01:17:51.834: :01:17:51.834
01:21:55.953: :01:21:55.953
01:28:38.605: :01:28:38.605
01:32:56.488: :01:32:56.488
01:38:02.418: :01:38:02.418
01:45:55.808: :01:45:55.766

Download Links

CONTRASEÑA PARA DESCOMPRIMIR

APORTES NUEVOS

cinemaniahdd.com

APORTES VIEJOS

CinemaniaHD.org

COMPRA O RENUEVA TU PREMIUM DE UPLOADED DESDE EL SIGUIENTE LINK:

http://ul.to/ref/9821430

SI GUSTAS PUEDES SEGUIRNOS EN LAS REDES SOCIALES

Facebook

Twitter

Post Relacionados