Death Race: La carrera de la muerte (2008) 1080p Latino

Death Race 1 : La Carrera de La Muerte (2008) 1080p Latino. Mega, Google Drive.En un futuro próximo. Una penitenciaría atestada de presos inspiró a los carceleros para crear un pasatiempo tan cruel como lucrativo. Presos capaces de todo, un público global hambriento de violencia televisada y un ruedo espectacular se unen en DEATH RACE. El tricampeón de velocidad Jensen Ames (Jason Statham) es todo un experto a la hora de sobrevivir en el desértico paisaje en el que se ha convertido el país. Cree haber cambiado de vida, pero el ex convicto es acusado de un terrible crimen que no ha cometido. La directora de Terminal Island (Joan Allen) le obliga a ponerse la máscara de Frankenstein, un favorito del público al que parece imposible matar, y le da dos opciones: competir o pudrirse en una celda. Con el rostro escondido detrás de la máscara metálica, el preso deberá sobrevivir a los tres días más terribles de su vida, enfrentándose a los peores criminales procedentes de las cárceles más duras del país si quiere salir libre.



Titulo Original Death Race
Año 2008-08-22
Duracion 1h 51m
Director
Reparto , , , , , , , , , , , ,
Productora
Genero
Titulo original Death Race
Audio Español Latino AC3 5.1 BLURAY - Ingles AC3 5.1 BLURAY
Calidad: 1080p Resolucion: 1920x816p Formato: MKV
Encoder: CinefiloCool Peso: 3.39 GiB Duracion: 1h 51m
Subtitulos: Español Latino SRT - Ingles SRT
  • No hay video embed

Death Race - La Carrera de La Muerte (2008) 1080p Latino.mkv
Format: Matroska
Format version: Version 4 / Version 2
File size : 3.40 GiB
Duration: 1 h 50 min
Overall bit rate: 4 398 kb/s
Movie name: CinemaniaHDD.Net
Encoded date: UTC 2018-10-06 01:49:29 / UTC 2018-10-05T06:49:15Z
Writing application : mkvmerge v25.0.0 ('Prog Noir') 64-bit
Writing library : libebml v1.3.6 + libmatroska v1.4.9 / Lavf57.7.2

Video
ID: 1
Format: AVC
Format/Info : Advanced Video Codec
Format profile: High@L4.1
Format settings : CABAC / 5 Ref Frames
Format settings, CABAC: Yes
Format settings, RefFrames: 5 frames
Codec ID: V_MPEG4/ISO/AVC
Duration: 1 h 50 min
Bit rate: 3 500 kb/s
Width : 1 920 pixels
Height: 816 pixels
Display aspect ratio: 2.35:1
Frame rate mode : Constant
Frame rate: 23.976 (24000/1001) FPS
Color space : YUV
Chroma subsampling: 4:2:0
Bit depth : 8 bits
Scan type : Progressive
Bits/(Pixel*Frame): 0.093
Stream size : 2.64 GiB (78%)
Title : HD1080p [Bluray]
Writing library : x264 core 155 r2893 b00bcaf
Encoding settings : cabac=1 / ref=5 / deblock=1:0:0 / analyse=0x3:0x133 / me=umh / subme=9 / psy=1 / psy_rd=1.00:0.00 / mixed_ref=1 / me_range=16 / chroma_me=1 / trellis=2 / 8x8dct=1 / cqm=0 / deadzone=21,11 / fast_pskip=1 / chroma_qp_offset=-2 / threads=25 / lookahead_threads=2 / sliced_threads=0 / nr=0 / decimate=1 / interlaced=0 / bluray_compat=0 / constrained_intra=0 / bframes=3 / b_pyramid=2 / b_adapt=2 / b_bias=0 / direct=3 / weightb=1 / open_gop=0 / weightp=2 / keyint=240 / keyint_min=24 / scenecut=40 / intra_refresh=0 / rc_lookahead=60 / rc=2pass / mbtree=1 / bitrate=3500 / ratetol=1.0 / qcomp=0.60 / qpmin=0 / qpmax=69 / qpstep=4 / cplxblur=20.0 / qblur=0.5 / vbv_maxrate=62500 / vbv_bufsize=78125 / nal_hrd=none / filler=0 / ip_ratio=1.40 / aq=1:1.00
Default : Yes
Forced: No
Color range : Limited
Color primaries : BT.709
Transfer characteristics: BT.709
Matrix coefficients : BT.709
Statistics Tags Issue : mkvmerge v25.0.0 ('Prog Noir') 64-bit 2018-10-06 01:49:29 / mkvmerge v25.0.0 ('Prog Noir') 64-bit 2018-10-06 01:49:29 / UTC 2018-10-05T06:49:15Z
FromStats_BitRate : 3499584
FromStats_Duration: 01:50:35.671000000
FromStats_FrameCount: 159097
FromStats_StreamSize: 2902761518

Audio #1
ID: 2
Format: AC-3
Format/Info : Audio Coding 3
Format settings, Endianness : Big
Codec ID: A_AC3
Duration: 1 h 50 min
Bit rate mode : Constant
Bit rate: 448 kb/s
Channel(s): 6 channels
Channel positions : Front: L C R, Side: L R, LFE
Sampling rate : 48.0 kHz
Frame rate: 31.250 FPS (1536 SPF)
Bit depth : 16 bits
Compression mode: Lossy
Delay relative to video : -5 ms
Stream size : 354 MiB (10%)
Title : AC3_5.1_Bluray_Esp
Language: Spanish
Service kind: Complete Main
Default : Yes
Forced: No
Statistics Tags Issue : mkvmerge v25.0.0 ('Prog Noir') 64-bit 2018-10-06 01:49:29 / mkvmerge v25.0.0 ('Prog Noir') 64-bit 2018-10-06 01:49:29 / UTC 2018-10-05T06:49:15Z
FromStats_BitRate : 448000
FromStats_Duration: 01:50:35.968000000
FromStats_FrameCount: 207374
FromStats_StreamSize: 371614208

Audio #2
ID: 3
Format: AC-3
Format/Info : Audio Coding 3
Format settings, Endianness : Big
Codec ID: A_AC3
Duration: 1 h 50 min
Bit rate mode : Constant
Bit rate: 448 kb/s
Channel(s): 6 channels
Channel positions : Front: L C R, Side: L R, LFE
Sampling rate : 48.0 kHz
Frame rate: 31.250 FPS (1536 SPF)
Bit depth : 16 bits
Compression mode: Lossy
Stream size : 354 MiB (10%)
Title : AC3_5.1_Bluray_Eng
Language: English
Service kind: Complete Main
Default : No
Forced: No
Statistics Tags Issue : mkvmerge v25.0.0 ('Prog Noir') 64-bit 2018-10-06 01:49:29 / mkvmerge v25.0.0 ('Prog Noir') 64-bit 2018-10-06 01:49:29 / UTC 2018-10-05T06:49:15Z
FromStats_BitRate : 448000
FromStats_Duration: 01:50:35.680000000
FromStats_FrameCount: 207365
FromStats_StreamSize: 371598080

Text #1
ID: 4
Format: UTF-8
Codec ID: S_TEXT/UTF8
Codec ID/Info : UTF-8 Plain Text
Title : Sub_Esp
Language: Spanish
Default : No
Forced: No
Statistics Tags Issue : mkvmerge v25.0.0 ('Prog Noir') 64-bit 2018-10-06 01:49:29 / mkvmerge v25.0.0 ('Prog Noir') 64-bit 2018-10-06 01:49:29 / UTC 2018-10-05T06:49:15Z
FromStats_BitRate : 36
FromStats_Duration: 01:50:08.655000000
FromStats_FrameCount: 926
FromStats_StreamSize: 29972

Text #2
ID: 5
Format: UTF-8
Codec ID: S_TEXT/UTF8
Codec ID/Info : UTF-8 Plain Text
Title : Sub_Eng
Language: English
Default : No
Forced: No
Statistics Tags Issue : mkvmerge v25.0.0 ('Prog Noir') 64-bit 2018-10-06 01:49:29 / mkvmerge v25.0.0 ('Prog Noir') 64-bit 2018-10-06 01:49:29 / UTC 2018-10-05T06:49:15Z
FromStats_BitRate : 35
FromStats_Duration: 01:48:20.994000000
FromStats_FrameCount: 906
FromStats_StreamSize: 28929

Menu
00:00:00.000: :Killer Competition
00:04:10.584: :Honest Living (Main Titles)
00:12:15.068: :Behind Bars
00:16:04.338: :Never A Dull Day
00:19:26.499: :Keep The Legend Alive
00:24:13.786: :Getting Acquainted
00:33:04.441: :Stage 1
00:37:14.274: :Start Transmission
00:43:35.613: :Activate Swords & Shields
00:52:14.173: :Play My Game
00:59:36.698: :Looking For Me?
01:03:48.950: :Stage 2
01:07:46.104: :On The Offense
01:12:45.444: :Release The Dreadnought
01:20:16.645: :Stage 3
01:24:47.457: :A Little Inspiration
01:28:38.271: :It's Party Time
01:33:25.642: :Off Track
01:41:49.103: :All That Matters
01:44:33.392: :End Titles

Download Links

CONTRASEÑA PARA DESCOMPRIMIR

APORTES NUEVOS

cinemaniahdd.com

APORTES VIEJOS

CinemaniaHD.org

COMPRA O RENUEVA TU PREMIUM DE UPLOADED DESDE EL SIGUIENTE LINK:

http://ul.to/ref/9821430

SI GUSTAS PUEDES SEGUIRNOS EN LAS REDES SOCIALES

Facebook

Twitter

Post Relacionados