Descubriendo a Morrissey (2017) 1080p Latino

Descargar Descubriendo a Morrissey (2017) 1080p Latino; Mega, Google drive. Biopic del cantante británico Morrissey. La película narra los comienzos del artista cuando solo era conocido como Steven Morrisey (Jack Lowden). Un día eso cambiará cuando conozca a Johnny Marr, un joven cantante que está comenzando, y se una a él para formar la banda ‘The Smith’. Con este grupo Morrisey alcanzó uno de sus mayores éxitos y comenzó su carrera en solitario.



Titulo original England Is Mine
Audio Español Latino AC3 2.0 Capturado - Ingles AC3 5.1 BLURAY
Calidad: 1080p Resolucion: 1920x808p Formato: MKV
Encoder: CinefiloCool Peso: 2.72 GiB Duracion: 1h 32m
Subtitulos: Español Latino SRT
  • No hay video embed

Descubriendo a Morrissey (2017) 1080p Latino.mkv
Format: Matroska
Format version: Version 4 / Version 2
File size : 2.72 GiB
Duration: 1 h 34 min
Overall bit rate: 4 116 kb/s
Movie name: CinemaniaHDD.Net
Encoded date: UTC 2018-10-30 02:33:52 / UTC 2018-10-29T04:44:02Z
Writing application : mkvmerge v25.0.0 ('Prog Noir') 64-bit
Writing library : libebml v1.3.6 + libmatroska v1.4.9 / Lavf57.7.2

Video
ID: 1
Format: AVC
Format/Info : Advanced Video Codec
Format profile: High@L4.1
Format settings : CABAC / 5 Ref Frames
Format settings, CABAC: Yes
Format settings, RefFrames: 5 frames
Codec ID: V_MPEG4/ISO/AVC
Duration: 1 h 34 min
Bit rate: 3 500 kb/s
Width : 1 920 pixels
Height: 808 pixels
Display aspect ratio: 2.40:1
Frame rate mode : Constant
Frame rate: 24.000 FPS
Color space : YUV
Chroma subsampling: 4:2:0
Bit depth : 8 bits
Scan type : Progressive
Bits/(Pixel*Frame): 0.094
Stream size : 2.24 GiB (82%)
Title : HD1080p [Bluray]
Writing library : x264 core 155 r2893 b00bcaf
Encoding settings : cabac=1 / ref=5 / deblock=1:0:0 / analyse=0x3:0x113 / me=hex / subme=8 / psy=1 / psy_rd=1.00:0.00 / mixed_ref=1 / me_range=16 / chroma_me=1 / trellis=2 / 8x8dct=1 / cqm=0 / deadzone=21,11 / fast_pskip=1 / chroma_qp_offset=-2 / threads=25 / lookahead_threads=4 / sliced_threads=0 / nr=0 / decimate=1 / interlaced=0 / bluray_compat=0 / constrained_intra=0 / bframes=3 / b_pyramid=2 / b_adapt=1 / b_bias=0 / direct=3 / weightb=1 / open_gop=0 / weightp=2 / keyint=240 / keyint_min=24 / scenecut=40 / intra_refresh=0 / rc_lookahead=50 / rc=abr / mbtree=1 / bitrate=3500 / ratetol=1.0 / qcomp=0.60 / qpmin=0 / qpmax=69 / qpstep=4 / vbv_maxrate=62500 / vbv_bufsize=78125 / nal_hrd=none / filler=0 / ip_ratio=1.40 / aq=1:1.00
Default : Yes
Forced: No
Color range : Limited
Color primaries : BT.709
Transfer characteristics: BT.709
Matrix coefficients : BT.709
Statistics Tags Issue : mkvmerge v25.0.0 ('Prog Noir') 64-bit 2018-10-30 02:33:52 / mkvmerge v25.0.0 ('Prog Noir') 64-bit 2018-10-30 02:33:52 / UTC 2018-10-29T04:44:02Z
FromStats_BitRate : 3474362
FromStats_Duration: 01:34:36.792000000
FromStats_FrameCount: 136243
FromStats_StreamSize: 2465404314

Audio #1
ID: 2
Format: AC-3
Format/Info : Audio Coding 3
Format settings, Endianness : Big
Codec ID: A_AC3
Duration: 1 h 34 min
Bit rate mode : Constant
Bit rate: 192 kb/s
Channel(s): 2 channels
Channel positions : Front: L R
Sampling rate : 48.0 kHz
Frame rate: 31.250 FPS (1536 SPF)
Bit depth : 16 bits
Compression mode: Lossy
Delay relative to video : -5 ms
Stream size : 130 MiB (5%)
Title : AC3_2.0_Captura_Esp
Language: Spanish
Service kind: Complete Main
Default : Yes
Forced: No
Statistics Tags Issue : mkvmerge v25.0.0 ('Prog Noir') 64-bit 2018-10-30 02:33:52 / mkvmerge v25.0.0 ('Prog Noir') 64-bit 2018-10-30 02:33:52 / UTC 2018-10-29T04:44:02Z
FromStats_BitRate : 192000
FromStats_Duration: 01:34:36.736000000
FromStats_FrameCount: 177398
FromStats_StreamSize: 136241664

Audio #2
ID: 3
Format: AC-3
Format/Info : Audio Coding 3
Format settings, Endianness : Big
Codec ID: A_AC3
Duration: 1 h 34 min
Bit rate mode : Constant
Bit rate: 448 kb/s
Channel(s): 6 channels
Channel positions : Front: L C R, Side: L R, LFE
Sampling rate : 48.0 kHz
Frame rate: 31.250 FPS (1536 SPF)
Bit depth : 16 bits
Compression mode: Lossy
Stream size : 303 MiB (11%)
Title : AC3_5.1_Bluray_Eng
Language: English
Service kind: Complete Main
Default : No
Forced: No
Statistics Tags Issue : mkvmerge v25.0.0 ('Prog Noir') 64-bit 2018-10-30 02:33:52 / mkvmerge v25.0.0 ('Prog Noir') 64-bit 2018-10-30 02:33:52 / UTC 2018-10-29T04:44:02Z
FromStats_BitRate : 448000
FromStats_Duration: 01:34:36.704000000
FromStats_FrameCount: 177397
FromStats_StreamSize: 317895424

Text
ID: 4
Format: UTF-8
Codec ID: S_TEXT/UTF8
Codec ID/Info : UTF-8 Plain Text
Title : Sub_Esp
Language: Spanish
Default : Yes
Forced: No
Statistics Tags Issue : mkvmerge v25.0.0 ('Prog Noir') 64-bit 2018-10-30 02:33:52 / mkvmerge v25.0.0 ('Prog Noir') 64-bit 2018-10-30 02:33:52 / UTC 2018-10-29T04:44:02Z
FromStats_BitRate : 35
FromStats_Duration: 01:25:46.883000000
FromStats_FrameCount: 782
FromStats_StreamSize: 22677

Menu
00:00:00.000: :00:00:00.000
00:05:42.042: :00:05:42.000
00:11:59.292: :00:11:59.208
00:18:59.250: :00:18:59.125
00:27:51.833: :00:27:51.750
00:38:22.583: :00:38:22.458
00:46:56.625: :00:46:56.500
00:52:36.333: :00:52:36.333
01:01:48.208: :01:01:48.083
01:11:36.875: :01:11:36.875
01:20:22.875: :01:20:22.875
01:26:13.750: :01:26:13.708

Download Links

CONTRASEÑA PARA DESCOMPRIMIR

APORTES NUEVOS

cinemaniahdd.com

APORTES VIEJOS

CinemaniaHD.org

COMPRA O RENUEVA TU PREMIUM DE UPLOADED DESDE EL SIGUIENTE LINK:

http://ul.to/ref/9821430

SI GUSTAS PUEDES SEGUIRNOS EN LAS REDES SOCIALES

Facebook

Twitter

Post Relacionados