Desperado (1995) Full 1080p Latino

Un joven mariachi marcado por la fatalidad y el destino se sumerge en el oscuro mundo del hampa cargado con un viejo estuche de guitarra que esconde todo tipo de armas. Su objetivo es seguir la sangrienta pista que le lleva hasta el infame narcotraficante Bucho. Con la ayuda de la dueña de un café de un pequeño pueblo tomado por un traficante de drogas, se enfrentará al bandido en un duelo marcado por la pólvora, la sangre y la acción.



Titulo original Desperado
Audio Español Latino AC3 5.1 BLURAY - Ingles DTS 5.1 BLURAY
Calidad: Full 1080p Resolucion: 1920x1080p Formato: MKV
Encoder: Dracarys Peso: 14.5 GiB Duracion: 1h 44m
Subtitulos: Español Latino SRT
  • No hay video embed

Format                                 : Matroska
Format version                         : Version 4 / Version 2
File size                              : 14.5 GiB
Duration                               : 1 h 44 min
Overall bit rate                       : 19.9 Mb/s
Movie name                             : CinemaniaHDD.net
Encoded date                           : UTC 2018-10-10 19:42:45 / UTC 2018-10-01T01:56:32Z
Writing application                    : mkvmerge v15.0.0 ('Duel with the Devil') 64-bit
Writing library                        : libebml v1.3.5 + libmatroska v1.4.5 / Lavf57.7.2

Video
ID                                     : 1
Format                                 : AVC
Format/Info                            : Advanced Video Codec
Format profile                         : High@L4.1
Format settings                        : CABAC / 4 Ref Frames
Format settings, CABAC                 : Yes
Format settings, RefFrames             : 4 frames
Codec ID                               : V_MPEG4/ISO/AVC
Duration                               : 1 h 44 min
Bit rate                               : 17.5 Mb/s
Width                                  : 1 920 pixels
Height                                 : 1 080 pixels
Display aspect ratio                   : 16:9
Frame rate mode                        : Constant
Frame rate                             : 23.976 (24000/1001) FPS
Color space                            : YUV
Chroma subsampling                     : 4:2:0
Bit depth                              : 8 bits
Scan type                              : Progressive
Bits/(Pixel*Frame)                     : 0.353
Stream size                            : 12.8 GiB (88%)
Writing library                        : x264 core 148 r2708 86b7198
Encoding settings                      : cabac=1 / ref=4 / deblock=1:0:0 / analyse=0x3:0x133 / me=esa / subme=10 / psy=1 / psy_rd=1.00:0.00 / mixed_ref=1 / me_range=24 / chroma_me=1 / trellis=2 / 8x8dct=1 / cqm=0 / deadzone=21,11 / fast_pskip=1 / chroma_qp_offset=-2 / threads=34 / lookahead_threads=5 / sliced_threads=0 / nr=0 / decimate=1 / interlaced=0 / bluray_compat=0 / constrained_intra=0 / bframes=8 / b_pyramid=2 / b_adapt=2 / b_bias=0 / direct=3 / weightb=1 / open_gop=0 / weightp=2 / keyint=240 / keyint_min=24 / scenecut=40 / intra_refresh=0 / rc_lookahead=60 / rc=crf / mbtree=1 / crf=20.0 / qcomp=0.60 / qpmin=0 / qpmax=69 / qpstep=4 / vbv_maxrate=62500 / vbv_bufsize=78125 / crf_max=0.0 / nal_hrd=none / filler=0 / ip_ratio=1.40 / aq=1:1.00
Language                               : English
Default                                : Yes
Forced                                 : No
Color range                            : Limited
Color primaries                        : BT.709
Transfer characteristics               : BT.709
Matrix coefficients                    : BT.709
Statistics Tags Issue                  : mkvmerge v15.0.0 ('Duel with the Devil') 64-bit 2018-10-10 19:42:45 / mkvmerge v15.0.0 ('Duel with the Devil') 64-bit 2018-10-10 19:42:45 / UTC 2018-10-01T01:56:32Z
FromStats_BitRate                      : 17923981
FromStats_Duration                     : 01:44:30.306000000
FromStats_FrameCount                   : 150337
FromStats_StreamSize                   : 14048606022

Audio #1
ID                                     : 2
Format                                 : AC-3
Format/Info                            : Audio Coding 3
Format settings, Endianness            : Big
Codec ID                               : A_AC3
Duration                               : 1 h 44 min
Bit rate mode                          : Constant
Bit rate                               : 448 kb/s
Channel(s)                             : 6 channels
Channel positions                      : Front: L C R, Side: L R, LFE
Sampling rate                          : 44.1 kHz
Frame rate                             : 28.711 FPS (1536 SPF)
Bit depth                              : 16 bits
Compression mode                       : Lossy
Stream size                            : 335 MiB (2%)
Language                               : Spanish
Service kind                           : Complete Main
Default                                : Yes
Forced                                 : No
Statistics Tags Issue                  : mkvmerge v15.0.0 ('Duel with the Devil') 64-bit 2018-10-10 19:42:45 / mkvmerge v15.0.0 ('Duel with the Devil') 64-bit 2018-10-10 19:42:45 / UTC 2018-10-01T01:56:32Z
FromStats_BitRate                      : 448000
FromStats_Duration                     : 01:44:32.209000000
FromStats_FrameCount                   : 180081
FromStats_StreamSize                   : 351243710

Audio #2
ID                                     : 3
Format                                 : DTS
Format/Info                            : Digital Theater Systems
Mode                                   : 16
Format settings, Endianness            : Big
Codec ID                               : A_DTS
Duration                               : 1 h 44 min
Bit rate mode                          : Constant
Bit rate                               : 1 509 kb/s
Channel(s)                             : 6 channels
Channel positions                      : Front: L C R, Side: L R, LFE
Sampling rate                          : 48.0 kHz
Frame rate                             : 93.750 FPS (512 SPF)
Bit depth                              : 16 bits
Compression mode                       : Lossy
Stream size                            : 1.10 GiB (8%)
Language                               : English
Default                                : No
Forced                                 : No
Statistics Tags Issue                  : mkvmerge v15.0.0 ('Duel with the Devil') 64-bit 2018-10-10 19:42:45 / mkvmerge v15.0.0 ('Duel with the Devil') 64-bit 2018-10-10 19:42:45 / UTC 2018-10-01T01:56:32Z
FromStats_BitRate                      : 1509000
FromStats_Duration                     : 01:44:30.304000000
FromStats_FrameCount                   : 587841
FromStats_StreamSize                   : 1182736092

Text
ID                                     : 4
Format                                 : UTF-8
Codec ID                               : S_TEXT/UTF8
Codec ID/Info                          : UTF-8 Plain Text
Language                               : Spanish
Default                                : No
Forced                                 : No
Statistics Tags Issue                  : mkvmerge v15.0.0 ('Duel with the Devil') 64-bit 2018-10-10 19:42:45 / mkvmerge v15.0.0 ('Duel with the Devil') 64-bit 2018-10-10 19:42:45 / UTC 2018-10-01T01:56:32Z
FromStats_BitRate                      : 32
FromStats_Duration                     : 01:38:20.932000000
FromStats_FrameCount                   : 854
FromStats_StreamSize                   : 24246

Menu
00:00:00.000                           : :Chapter 1
00:11:03.913                           : :Chapter 2
00:15:41.149                           : :Chapter 3
00:18:59.930                           : :Chapter 4
00:29:20.842                           : :Chapter 5
00:41:33.491                           : :Chapter 6
00:45:30.353                           : :Chapter 7
00:48:26.946                           : :Chapter 8
00:51:59.366                           : :Chapter 9
00:56:18.083                           : :Chapter 10
01:03:51.786                           : :Chapter 11
01:12:59.292                           : :Chapter 12
01:17:30.062                           : :Chapter 13
01:24:51.837                           : :Chapter 14
01:32:33.131                           : :Chapter 15
01:38:15.139                           : :Chapter 16

 

Download Links

CONTRASEÑA PARA DESCOMPRIMIR

APORTES NUEVOS

cinemaniahdd.com

APORTES VIEJOS

CinemaniaHD.org

COMPRA O RENUEVA TU PREMIUM DE UPLOADED DESDE EL SIGUIENTE LINK:

http://ul.to/ref/9821430

SI GUSTAS PUEDES SEGUIRNOS EN LAS REDES SOCIALES

Facebook

Twitter

Post Relacionados