Dominios Oscuros (2018) Web-DL 1080p Latino

Dominios Oscuros (2018) Web-DL Latino; Mega, Google Drive. Huyendo de un brutal robo frustrado a un banco, dos ladrones se encuentran en circunstancias surrealistas dentro de una mansión aislada en el bosque. A medida que la noche se desarrolla, la tensión aumenta rápidamente, y todos empiezan a creer que la mansión guarda muchos secretos dentro de sus misteriosas habitaciones.



Titulo Original Realms
Año 2018-10-14
Duracion 1h 30m
Director
Reparto
Productora
Genero
Titulo original Realms
Audio Español Latino AC3 5.1 iTunes - Ingles AC3 5.1 iTunes
Calidad: WEBDL Resolucion: 1920x818p Formato: MKV
Encoder: FGT Peso: 3.38 GiB Duracion: 1h 30m
Subtitulos: Español Latino SRT- FORZADOS SRT
  • No hay video embed

Dominios Oscuros (2017) Web-DL 1080p Latino.mkv
Format: Matroska
Format version: Version 4 / Version 2
File size : 3.38 GiB
Duration: 1 h 30 min
Overall bit rate: 5 346 kb/s
Movie name: CinemaniaHDD.Net
Encoded date: UTC 2018-10-31 21:30:52
Writing application : mkvmerge v25.0.0 ('Prog Noir') 64-bit
Writing library : libebml v1.3.6 + libmatroska v1.4.9
Cover : Yes
Attachments : cover_land.jpg / small_cover.jpg / small_cover_land.jpg / cover.jpg

Video
ID: 1
Format: AVC
Format/Info : Advanced Video Codec
Format profile: High@L4
Format settings : CABAC / 5 Ref Frames
Format settings, CABAC: Yes
Format settings, RefFrames: 5 frames
Codec ID: V_MPEG4/ISO/AVC
Duration: 1 h 30 min
Bit rate: 4 576 kb/s
Width : 1 920 pixels
Height: 818 pixels
Display aspect ratio: 2.35:1
Frame rate mode : Constant
Frame rate: 23.976 (23976/1000) FPS
Color space : YUV
Chroma subsampling: 4:2:0
Bit depth : 8 bits
Scan type : Progressive
Bits/(Pixel*Frame): 0.122
Stream size : 2.89 GiB (86%)
Title : HD1080p [Web-DL]
Language: English
Default : Yes
Forced: No
Color range : Limited
Color primaries : BT.709
Transfer characteristics: BT.709
Matrix coefficients : BT.709

Audio #1
ID: 2
Format: AC-3
Format/Info : Audio Coding 3
Format settings, Endianness : Big
Codec ID: A_AC3
Duration: 1 h 30 min
Bit rate mode : Constant
Bit rate: 384 kb/s
Channel(s): 6 channels
Channel positions : Front: L C R, Side: L R, LFE
Sampling rate : 48.0 kHz
Frame rate: 31.250 FPS (1536 SPF)
Bit depth : 16 bits
Compression mode: Lossy
Delay relative to video : -42 ms
Stream size : 249 MiB (7%)
Title : AC3_5.1_Web-DL_Esp
Language: Spanish
Service kind: Complete Main
Default : Yes
Forced: Yes

Audio #2
ID: 3
Format: AC-3
Format/Info : Audio Coding 3
Format settings, Endianness : Big
Codec ID: A_AC3
Duration: 1 h 30 min
Bit rate mode : Constant
Bit rate: 384 kb/s
Channel(s): 6 channels
Channel positions : Front: L C R, Side: L R, LFE
Sampling rate : 48.0 kHz
Frame rate: 31.250 FPS (1536 SPF)
Bit depth : 16 bits
Compression mode: Lossy
Delay relative to video : -42 ms
Stream size : 249 MiB (7%)
Title : AC3_5.1_Web-DL_Eng
Language: English
Service kind: Complete Main
Default : No
Forced: No

Text #1
ID: 4
Format: UTF-8
Codec ID: S_TEXT/UTF8
Codec ID/Info : UTF-8 Plain Text
Duration: 1 h 28 min
Bit rate: 2 b/s
Count of elements : 72
Stream size : 1.85 KiB (0%)
Title : Sub_Forzados
Language: Spanish
Default : Yes
Forced: Yes

Text #2
ID: 5
Format: UTF-8
Codec ID: S_TEXT/UTF8
Codec ID/Info : UTF-8 Plain Text
Duration: 1 h 29 min
Bit rate: 24 b/s
Count of elements : 662
Stream size : 16.1 KiB (0%)
Title : Sub_Esp
Language: Spanish
Default : No
Forced: No

Menu
00:00:00.000: en:1
00:07:49.000: en:2
00:14:51.000: en:3
00:22:58.000: en:4
00:31:40.000: en:5
00:46:20.000: en:6
00:57:43.000: en:7
01:04:50.000: en:8
01:13:47.000: en:9
01:24:35.000: en:10
01:26:21.000: en:11

Download Links

CONTRASEÑA PARA DESCOMPRIMIR

APORTES NUEVOS

cinemaniahdd.com

APORTES VIEJOS

CinemaniaHD.org

COMPRA O RENUEVA TU PREMIUM DE UPLOADED DESDE EL SIGUIENTE LINK:

http://ul.to/ref/9821430

SI GUSTAS PUEDES SEGUIRNOS EN LAS REDES SOCIALES

Facebook

Twitter

Post Relacionados