Dragon Ball Z: Resurrection of Freezer 720p Latino

Luego de que Bills el dios de la destruccion en la peliculas hd una de las primeras peliculas Dios de la destruccion Dragon ball Z tomara la decision de no destriar la tierra por la comida muy rica, pasan los anos y se vive en paz, todos os guerreros z estan en paz, pero luego apsan esos anos. Un grupo elite de frezzer , buscan los resto de frezzer y lo reviven con las esferan del dragon y frezzer se entrena y vuelve a la tierra para vengar su muerte.



Titulo Original Dragon Ball Z: Fukkatsu no F
Año 2015
Duracion 93 min.
Director
Reparto Animation
Productora Animation
Genero
Titulo original Dragon Ball Z: Fukkatsu no F
Audio Español Latino (AC3 2.0 DVD) - Japones (AC3 5.1 BD)
Calidad: BRRip 720p Resolucion: 1280x720 Formato: .MKV
Encoder: Ripeos720p Peso: 1.30 GB. Duracion:
Subtitulos: Latino (.srt)
  • No hay video embed

General
Unique ID                                : 193432698114383245966194004562226377254 (0x9185C85557786A28AD00E5AC79C6F226)
Format                                   : Matroska
Format version                           : Version 4 / Version 2
File size                                : 1.24 GiB
Duration                                 : 1h 34mn
Overall bit rate                         : 1 887 Kbps
Movie name                               : WwW.CinemaniaHDD.com
Encoded date                             : UTC 2015-10-17 02:22:36
Writing application                      : mkvmerge v8.3.0 ('Over the Horizon') 64bit
Writing library                          : libebml v1.3.1 + libmatroska v1.4.2
DURATION                                 : 01:28:39.975000000
NUMBER_OF_FRAMES                         : 1129
NUMBER_OF_BYTES                          : 43661
_STATISTICS_WRITING_APP                  : mkvmerge v8.3.0 ('Over the Horizon') 64bit
_STATISTICS_WRITING_DATE_UTC             : 2015-10-17 02:22:36
_STATISTICS_TAGS                         : BPS DURATION NUMBER_OF_FRAMES NUMBER_OF_BYTES

Video
ID                                       : 1
Format                                   : AVC
Format/Info                              : Advanced Video Codec
Format profile                           : High@L4.1
Format settings, CABAC                   : Yes
Format settings, ReFrames                : 4 frames
Codec ID                                 : V_MPEG4/ISO/AVC
Bit rate                                 : 1 300 Kbps
Width                                    : 1 280 pixels
Height                                   : 720 pixels
Display aspect ratio                     : 16:9
Frame rate mode                          : Variable
Color space                              : YUV
Chroma subsampling                       : 4:2:0
Bit depth                                : 8 bits
Scan type                                : Progressive
Title                                    : WwW.CinemaniaHDD.com
Writing library                          : x264 core 142 r2479 dd79a61
Encoding settings                        : cabac=1 / ref=1 / deblock=1:1:1 / analyse=0x3:0x113 / me=hex / subme=2 / psy=1 / psy_rd=0.40:0.00 / mixed_ref=0 / me_range=16 / chroma_me=1 / trellis=0 / 8x8dct=1 / cqm=0 / deadzone=21,11 / fast_pskip=1 / chroma_qp_offset=0 / threads=12 / lookahead_threads=4 / sliced_threads=0 / nr=0 / decimate=1 / interlaced=0 / bluray_compat=0 / constrained_intra=0 / bframes=5 / b_pyramid=2 / b_adapt=1 / b_bias=0 / direct=1 / weightb=1 / open_gop=0 / weightp=1 / keyint=240 / keyint_min=24 / scenecut=40 / intra_refresh=0 / rc_lookahead=10 / rc=abr / mbtree=1 / bitrate=1300 / ratetol=1.0 / qcomp=0.60 / qpmin=0 / qpmax=69 / qpstep=4 / vbv_maxrate=62500 / vbv_bufsize=78125 / nal_hrd=none / filler=0 / ip_ratio=1.40 / aq=1:0.60
Default                                  : Yes
Forced                                   : No
Color range                              : Limited
Color primaries                          : BT.709
Transfer characteristics                 : BT.709
Matrix coefficients                      : BT.709

Audio #1
ID                                       : 2
Format                                   : AC-3
Format/Info                              : Audio Coding 3
Mode extension                           : CM (complete main)
Format settings, Endianness              : Big
Codec ID                                 : A_AC3
Duration                                 : 1h 34mn
Bit rate mode                            : Constant
Bit rate                                 : 192 Kbps
Channel(s)                               : 2 channels
Channel positions                        : Front: L R
Sampling rate                            : 48.0 KHz
Compression mode                         : Lossy
Stream size                              : 129 MiB (10%)
Title                                    : WwW.CinemaniaHDD.com
Language                                 : Spanish
Default                                  : Yes
Forced                                   : No

Audio #2
ID                                       : 3
Format                                   : AC-3
Format/Info                              : Audio Coding 3
Mode extension                           : CM (complete main)
Format settings, Endianness              : Big
Codec ID                                 : A_AC3
Duration                                 : 1h 34mn
Bit rate mode                            : Constant
Bit rate                                 : 384 Kbps
Channel(s)                               : 6 channels
Channel positions                        : Front: L C R, Side: L R, LFE
Sampling rate                            : 48.0 KHz
Compression mode                         : Lossy
Stream size                              : 259 MiB (20%)
Title                                    : WwW.CinemaniaHDD.com
Language                                 : Japanese
Default                                  : No
Forced                                   : No

Text
ID                                       : 4
Format                                   : UTF-8
Codec ID                                 : S_TEXT/UTF8
Codec ID/Info                            : UTF-8 Plain Text
Title                                    : WwW.CinemaniaHDD.com
Language                                 : Spanish
Default                                  : No
Forced                                   : No

Download Links

CONTRASEÑA PARA DESCOMPRIMIR

APORTES NUEVOS

cinemaniahdd.com

APORTES VIEJOS

CinemaniaHD.org

COMPRA O RENUEVA TU PREMIUM DE UPLOADED DESDE EL SIGUIENTE LINK:

http://ul.to/ref/9821430

SI GUSTAS PUEDES SEGUIRNOS EN LAS REDES SOCIALES

Facebook

Twitter

Post Relacionados