El Calendario de Navidad (2018) Web-DL 1080p Latino

El Calendario de Navidad (2018) Web-DL 1080p Latino; Mega, Google Drive. Una fotógrafa talentosa, pero que lucha por salir adelante, hereda un antiguo calendario de adviento de vacaciones, cuyo contenido parece predecir el futuro. ¿Este calendario mágico la llevará a amar esta temporada de vacaciones?



Titulo Original The Holiday Calendar
Año 2018-11-02
Duracion 1h 34m
Director
Reparto , , , , ,
Productora
Genero
Titulo original The Holiday Calendar
Audio Español Latino AC3 5.1 Netflix - Ingles AC3 5.1 Netflix
Calidad: WEBDL Resolucion: 1920x1080p Formato: MKV
Encoder: EAGLE Peso: 3.14 GiB Duracion: 1h 34m
Subtitulos: Español Latino SRT - Ingles SRT
  • No hay video embed

El Calendario de Navidad (2018) Web-DL NF 1080p Latino.mkv
Format: Matroska
Format version: Version 4 / Version 2
File size : 3.14 GiB
Duration: 1 h 35 min
Overall bit rate: 4 720 kb/s
Movie name: CinemaniaHDD.Net
Encoded date: UTC 2018-11-03 03:44:06
Writing application : mkvmerge v25.0.0 ('Prog Noir') 64-bit
Writing library : libebml v1.3.6 + libmatroska v1.4.9

Video
ID: 1
Format: AVC
Format/Info : Advanced Video Codec
Format profile: Main@L4
Format settings : CABAC / 3 Ref Frames
Format settings, CABAC: Yes
Format settings, RefFrames: 3 frames
Codec ID: V_MPEG4/ISO/AVC
Duration: 1 h 35 min
Bit rate: 3 950 kb/s
Width : 1 920 pixels
Height: 1 080 pixels
Display aspect ratio: 16:9
Frame rate mode : Constant
Frame rate: 23.976 (24000/1001) FPS
Color space : YUV
Chroma subsampling: 4:2:0
Bit depth : 8 bits
Scan type : Progressive
Bits/(Pixel*Frame): 0.079
Stream size : 2.62 GiB (84%)
Title : HD1080p [NF]
Default : Yes
Forced: No

Audio #1
ID: 2
Format: AC-3
Format/Info : Audio Coding 3
Format settings, Endianness : Big
Codec ID: A_AC3
Duration: 1 h 35 min
Bit rate mode : Constant
Bit rate: 384 kb/s
Channel(s): 6 channels
Channel positions : Front: L C R, Side: L R, LFE
Sampling rate : 48.0 kHz
Frame rate: 31.250 FPS (1536 SPF)
Bit depth : 16 bits
Compression mode: Lossy
Delay relative to video : -41 ms
Stream size : 261 MiB (8%)
Title : AC3_5.1_NF_Esp
Language: Spanish
Service kind: Complete Main
Default : Yes
Forced: Yes

Audio #2
ID: 3
Format: AC-3
Format/Info : Audio Coding 3
Format settings, Endianness : Big
Codec ID: A_AC3
Duration: 1 h 35 min
Bit rate mode : Constant
Bit rate: 384 kb/s
Channel(s): 6 channels
Channel positions : Front: L C R, Side: L R, LFE
Sampling rate : 48.0 kHz
Frame rate: 31.250 FPS (1536 SPF)
Bit depth : 16 bits
Compression mode: Lossy
Delay relative to video : -41 ms
Stream size : 261 MiB (8%)
Title : AC3_5.1_NF_Eng
Language: English
Service kind: Complete Main
Default : No
Forced: No

Text #1
ID: 4
Format: UTF-8
Codec ID: S_TEXT/UTF8
Codec ID/Info : UTF-8 Plain Text
Duration: 1 h 31 min
Bit rate: 0 b/s
Count of elements : 37
Stream size : 686 Bytes (0%)
Title : Sub_Forzados
Language: Spanish
Default : Yes
Forced: Yes

Text #2
ID: 5
Format: UTF-8
Codec ID: S_TEXT/UTF8
Codec ID/Info : UTF-8 Plain Text
Duration: 1 h 31 min
Bit rate: 59 b/s
Count of elements : 1432
Stream size : 40.2 KiB (0%)
Title : Sub_Esp
Language: Spanish
Default : No
Forced: No

Text #3
ID: 6
Format: UTF-8
Codec ID: S_TEXT/UTF8
Codec ID/Info : UTF-8 Plain Text
Duration: 1 h 34 min
Bit rate: 80 b/s
Count of elements : 1758
Stream size : 55.5 KiB (0%)
Title : Sub_eng
Language: English
Default : No
Forced: No

Download Links

CONTRASEÑA PARA DESCOMPRIMIR

APORTES NUEVOS

cinemaniahdd.com

APORTES VIEJOS

CinemaniaHD.org

COMPRA O RENUEVA TU PREMIUM DE UPLOADED DESDE EL SIGUIENTE LINK:

http://ul.to/ref/9821430

SI GUSTAS PUEDES SEGUIRNOS EN LAS REDES SOCIALES

Facebook

Twitter

Post Relacionados