El hombre que inventó la Navidad (2017) Full 1080p Latino

Descargar El hombre que inventó la Navidad (2017) Full 1080p Latino, Mega, Google Drive. “Cuento de Navidad” constituyó uno de los grandes éxitos de Charles Dickens en 1843; sin embargo, a pesar de su éxito, sus tres últimas obras constituyeron un rotundo fracaso. Todos sus editores acabaron rechazándole, por lo que él mismo se vio obligado a publicar su nueva obra para paliar así las dificultades económicas por las que estaba pasando. Esta historia se centra en cómo se creó la novela con la que Dickens dio auténtico sentido al espiritu de la navidad. Fecha de estreno en España (30 de noviembre de 2018)
Audio Español Latino AC3 2.0 Capturado – Ingles DTS 5.1 Bluray



Titulo Original The Man Who Invented Christmas
Año 2017-11-22
Duracion 1h 44m
Director
Reparto , , , , , , , , , , , , , ,
Productora
Genero
Titulo original The Man Who Invented Christmas
Audio Se especifica abajo de la Sinopsis
Calidad: Full 1080p Resolucion: 1920x1080p Formato: MKV
Encoder: CinefiloCool Peso: 3.11 GiB Duracion: 1h 44m
Subtitulos: Español Latino PGS - Ingles PGS
  • No hay video embed

El Hombre Que Invento La Navidad (2017) Full Latino.mkv
Format: Matroska
Format version: Version 4 / Version 2
File size : 3.11 GiB
Duration: 1 h 44 min
Overall bit rate: 4 260 kb/s
Movie name: CinemaniaHDD.Net
Encoded date: UTC 2018-12-01 07:23:57
Writing application : mkvmerge v25.0.0 ('Prog Noir') 64-bit
Writing library : libebml v1.3.6 + libmatroska v1.4.9

Video
ID: 1
Format: AVC
Format/Info : Advanced Video Codec
Format profile: High@L4.1
Format settings : CABAC / 4 Ref Frames
Format settings, CABAC: Yes
Format settings, RefFrames: 4 frames
Codec ID: V_MPEG4/ISO/AVC
Duration: 1 h 44 min
Bit rate: 2 467 kb/s
Width : 1 920 pixels
Height: 1 080 pixels
Display aspect ratio: 16:9
Frame rate mode : Constant
Frame rate: 23.976 (24000/1001) FPS
Color space : YUV
Chroma subsampling: 4:2:0
Bit depth : 8 bits
Scan type : Progressive
Bits/(Pixel*Frame): 0.050
Stream size : 1.80 GiB (58%)
Title : Full HD1080p [Bluray]
Writing library : x264 core 155 r2893 b00bcaf
Encoding settings : cabac=1 / ref=4 / deblock=1:0:0 / analyse=0x3:0x133 / me=esa / subme=10 / psy=1 / psy_rd=1.00:0.00 / mixed_ref=1 / me_range=24 / chroma_me=1 / trellis=2 / 8x8dct=1 / cqm=0 / deadzone=21,11 / fast_pskip=1 / chroma_qp_offset=-2 / threads=34 / lookahead_threads=5 / sliced_threads=0 / nr=0 / decimate=1 / interlaced=0 / bluray_compat=0 / constrained_intra=0 / bframes=8 / b_pyramid=2 / b_adapt=2 / b_bias=0 / direct=3 / weightb=1 / open_gop=0 / weightp=2 / keyint=240 / keyint_min=24 / scenecut=40 / intra_refresh=0 / rc_lookahead=60 / rc=crf / mbtree=1 / crf=20.0 / qcomp=0.60 / qpmin=0 / qpmax=69 / qpstep=4 / vbv_maxrate=62500 / vbv_bufsize=78125 / crf_max=0.0 / nal_hrd=none / filler=0 / ip_ratio=1.40 / aq=1:1.00
Default : Yes
Forced: No
Color range : Limited
Color primaries : BT.709
Transfer characteristics: BT.709
Matrix coefficients : BT.709

Audio #1
ID: 2
Format: AC-3
Format/Info : Audio Coding 3
Format settings, Endianness : Big
Codec ID: A_AC3
Duration: 1 h 44 min
Bit rate mode : Constant
Bit rate: 256 kb/s
Channel(s): 2 channels
Channel positions : Front: L R
Sampling rate : 48.0 kHz
Frame rate: 31.250 FPS (1536 SPF)
Bit depth : 16 bits
Compression mode: Lossy
Stream size : 191 MiB (6%)
Title : AC3_2.0_Captura_Esp
Language: Spanish
Service kind: Complete Main
Default : Yes
Forced: Yes

Audio #2
ID: 3
Format: DTS
Format/Info : Digital Theater Systems
Mode: 16
Format settings, Endianness : Big
Codec ID: A_DTS
Duration: 1 h 44 min
Bit rate mode : Constant
Bit rate: 1 509 kb/s
Channel(s): 6 channels
Channel positions : Front: L C R, Side: L R, LFE
Sampling rate : 48.0 kHz
Frame rate: 93.750 FPS (512 SPF)
Bit depth : 24 bits
Compression mode: Lossy
Stream size : 1.10 GiB (35%)
Title : DTS_5.1_Bluray_Eng
Language: English
Default : No
Forced: No

Text #1
ID: 4
Format: PGS
Muxing mode : zlib
Codec ID: S_HDMV/PGS
Codec ID/Info : Picture based subtitle format used on BDs/HD-DVDs
Duration: 1 h 43 min
Bit rate: 36.4 kb/s
Count of elements : 2956
Stream size : 27.0 MiB (1%)
Title : Sub_Esp [PGS]
Language: Spanish
Default : No
Forced: No

Text #2
ID: 5
Format: PGS
Muxing mode : zlib
Codec ID: S_HDMV/PGS
Codec ID/Info : Picture based subtitle format used on BDs/HD-DVDs
Duration: 1 h 36 min
Bit rate: 48.5 kb/s
Count of elements : 3721
Stream size : 33.5 MiB (1%)
Title : Sub_Eng [PGS]
Language: English
Default : No
Forced: No

Menu
00:00:00.000: :Chapter 1
00:05:06.139: :Chapter 2
00:12:43.680: :Chapter 3
00:17:12.823: :Chapter 4
00:22:02.655: :Chapter 5
00:25:10.843: :Chapter 6
00:29:02.824: :Chapter 7
00:33:22.626: :Chapter 8
00:37:53.897: :Chapter 9
00:41:50.258: :Chapter 10
00:47:02.111: :Chapter 11
00:51:23.330: :Chapter 12
00:57:15.599: :Chapter 13
01:05:34.889: :Chapter 14
01:09:44.931: :Chapter 15
01:15:32.153: :Chapter 16
01:19:46.365: :Chapter 17
01:27:44.009: :Chapter 18
01:32:09.858: :Chapter 19
01:37:58.414: :Chapter 20

Download Links

CONTRASEÑA PARA DESCOMPRIMIR

APORTES NUEVOS

cinemaniahdd.com

APORTES VIEJOS

CinemaniaHD.org

COMPRA O RENUEVA TU PREMIUM DE UPLOADED DESDE EL SIGUIENTE LINK:

http://ul.to/ref/9821430

SI GUSTAS PUEDES SEGUIRNOS EN LAS REDES SOCIALES

Facebook

Twitter

Post Relacionados