El hombre que inventó la Navidad (2017) Latino

Descargar El hombre que inventó la Navidad (2017) Latino, Mega, Google Drive. “Cuento de Navidad” constituyó uno de los grandes éxitos de Charles Dickens en 1843; sin embargo, a pesar de su éxito, sus tres últimas obras constituyeron un rotundo fracaso. Todos sus editores acabaron rechazándole, por lo que él mismo se vio obligado a publicar su nueva obra para paliar así las dificultades económicas por las que estaba pasando. Esta historia se centra en cómo se creó la novela con la que Dickens dio auténtico sentido al espiritu de la navidad. Fecha de estreno en España (30 de noviembre de 2018)



Titulo Original The Man Who Invented Christmas
Año 2017-11-22
Duracion 1h 44m
Director
Reparto , , , , , , , , , , , , , ,
Productora
Genero
Titulo original The Man Who Invented Christmas
Audio Español Latino AC3 2.0 Capturado - Ingles AC3 5.1 BLURAY
Calidad: Resolucion: 1920X808p Formato: MKV
Encoder: CinemaniaHD Peso: 2.97 GiB Duracion: 1h 44m
Subtitulos: Español Latino SRT - Ingles SRT
  • No hay video embed

El Hombre Que Invento La Navidad (2017) 1080 Latino.mkv
Format: Matroska
Format version: Version 4 / Version 2
File size : 2.97 GiB
Duration: 1 h 44 min
Overall bit rate: 4 076 kb/s
Movie name: CinemaniaHDD.Net
Encoded date: UTC 2018-11-30 03:25:52
Writing application : mkvmerge v25.0.0 ('Prog Noir') 64-bit
Writing library : libebml v1.3.6 + libmatroska v1.4.9
Attachments : CinemaniaHD.png

Video
ID: 1
Format: AVC
Format/Info : Advanced Video Codec
Format profile: High@L4.1
Format settings : CABAC / 5 Ref Frames
Format settings, CABAC: Yes
Format settings, RefFrames: 5 frames
Codec ID: V_MPEG4/ISO/AVC
Duration: 1 h 44 min
Bit rate: 3 500 kb/s
Width : 1 920 pixels
Height: 808 pixels
Display aspect ratio: 2.40:1
Frame rate mode : Constant
Frame rate: 23.976 (24000/1001) FPS
Color space : YUV
Chroma subsampling: 4:2:0
Bit depth : 8 bits
Scan type : Progressive
Bits/(Pixel*Frame): 0.094
Stream size : 2.46 GiB (83%)
Title : HD1080p [Bluray]
Writing library : x264 core 155 r2893 b00bcaf
Encoding settings : cabac=1 / ref=5 / deblock=1:0:0 / analyse=0x3:0x113 / me=hex / subme=8 / psy=1 / psy_rd=1.00:0.00 / mixed_ref=1 / me_range=16 / chroma_me=1 / trellis=2 / 8x8dct=1 / cqm=0 / deadzone=21,11 / fast_pskip=1 / chroma_qp_offset=-2 / threads=25 / lookahead_threads=4 / sliced_threads=0 / nr=0 / decimate=1 / interlaced=0 / bluray_compat=0 / constrained_intra=0 / bframes=3 / b_pyramid=2 / b_adapt=1 / b_bias=0 / direct=3 / weightb=1 / open_gop=0 / weightp=2 / keyint=240 / keyint_min=24 / scenecut=40 / intra_refresh=0 / rc_lookahead=50 / rc=abr / mbtree=1 / bitrate=3500 / ratetol=1.0 / qcomp=0.60 / qpmin=0 / qpmax=69 / qpstep=4 / vbv_maxrate=62500 / vbv_bufsize=78125 / nal_hrd=none / filler=0 / ip_ratio=1.40 / aq=1:1.00
Default : Yes
Forced: No
Color range : Limited
Color primaries : BT.709
Transfer characteristics: BT.709
Matrix coefficients : BT.709

Audio #1
ID: 2
Format: AC-3
Format/Info : Audio Coding 3
Format settings, Endianness : Big
Codec ID: A_AC3
Duration: 1 h 44 min
Bit rate mode : Constant
Bit rate: 256 kb/s
Channel(s): 2 channels
Channel positions : Front: L R
Sampling rate : 48.0 kHz
Frame rate: 31.250 FPS (1536 SPF)
Bit depth : 16 bits
Compression mode: Lossy
Delay relative to video : -5 ms
Stream size : 191 MiB (6%)
Title : AC3_2.0_Captura_Esp
Language: Spanish
Service kind: Complete Main
Default : Yes
Forced: Yes

Audio #2
ID: 3
Format: AC-3
Format/Info : Audio Coding 3
Format settings, Endianness : Big
Codec ID: A_AC3
Duration: 1 h 44 min
Bit rate mode : Constant
Bit rate: 448 kb/s
Channel(s): 6 channels
Channel positions : Front: L C R, Side: L R, LFE
Sampling rate : 48.0 kHz
Frame rate: 31.250 FPS (1536 SPF)
Bit depth : 16 bits
Compression mode: Lossy
Stream size : 335 MiB (11%)
Title : AC3_5.1_Bluray_Eng
Language: English
Service kind: Complete Main
Default : No
Forced: No

Text #1
ID: 4
Format: UTF-8
Codec ID: S_TEXT/UTF8
Codec ID/Info : UTF-8 Plain Text
Duration: 1 h 33 min
Bit rate: 0 b/s
Count of elements : 16
Stream size : 516 Bytes (0%)
Title : Sub_Forzados
Language: Spanish
Default : Yes
Forced: Yes

Text #2
ID: 5
Format: UTF-8
Codec ID: S_TEXT/UTF8
Codec ID/Info : UTF-8 Plain Text
Duration: 1 h 38 min
Bit rate: 68 b/s
Count of elements : 1483
Stream size : 49.5 KiB (0%)
Title : Sub_Esp
Language: Spanish
Default : No
Forced: No

Text #3
ID: 6
Format: UTF-8
Codec ID: S_TEXT/UTF8
Codec ID/Info : UTF-8 Plain Text
Duration: 1 h 36 min
Bit rate: 64 b/s
Count of elements : 1409
Stream size : 45.4 KiB (0%)
Title : Sub_Eng
Language: English
Default : No
Forced: No

Menu
00:00:00.000: :00:00:00.000
00:05:06.014: :00:05:06.014
00:12:43.263: :00:12:43.179
00:17:12.740: :00:17:12.740
00:22:02.655: :00:22:02.655
00:25:10.843: :00:25:10.843
00:29:02.699: :00:29:02.699
00:33:22.542: :00:33:22.542
00:37:53.897: :00:37:53.897
00:41:50.258: :00:41:50.258
00:47:02.111: :00:47:02.111
00:51:23.205: :00:51:23.205
00:57:15.515: :00:57:15.515
01:05:34.764: :01:05:34.764
01:09:44.931: :01:09:44.931
01:15:32.153: :01:15:32.153
01:19:46.365: :01:19:46.365
01:27:44.009: :01:27:44.009
01:32:09.858: :01:32:09.858
01:37:57.997: :01:37:57.872

Download Links

CONTRASEÑA PARA DESCOMPRIMIR

APORTES NUEVOS

cinemaniahdd.com

APORTES VIEJOS

CinemaniaHD.org

COMPRA O RENUEVA TU PREMIUM DE UPLOADED DESDE EL SIGUIENTE LINK:

http://ul.to/ref/9821430

SI GUSTAS PUEDES SEGUIRNOS EN LAS REDES SOCIALES

Facebook

Twitter

Post Relacionados