El justiciero 2 (2018) WEB-DL 1080p Subtitulado

Robert McCall (Denzel Washington) garantiza una justicia inquebrantable para los explotados y oprimidos, pero ¿cuánto de lejos llegará cuando se trate de alguien a quien ama? Secuela de The Equalizer (El protector) (2014).



Titulo original The Equalizer 2
Audio Ingles AC3 5.1 iTunes
Calidad: WEBDL Resolucion: 1920x796p Formato: MKV
Encoder: FGT Peso: 4.15 GiB Duracion: 2h 0m
Subtitulos: Español Latino SRT
  • No hay video embed

Format                                 : Matroska
Format version                         : Version 4 / Version 2
File size                              : 4.15 GiB
Duration                               : 2 h 1 min
Overall bit rate                       : 4 903 kb/s
Encoded date                           : UTC 2018-10-30 20:14:35
Writing application                    : mkvmerge v15.0.0 ('Duel with the Devil') 64-bit
Writing library                        : libebml v1.3.5 + libmatroska v1.4.5

Video
ID                                     : 1
Format                                 : AVC
Format/Info                            : Advanced Video Codec
Format profile                         : High@L4
Format settings                        : CABAC / 5 Ref Frames
Format settings, CABAC                 : Yes
Format settings, RefFrames             : 5 frames
Codec ID                               : V_MPEG4/ISO/AVC
Duration                               : 2 h 1 min
Bit rate                               : 4 518 kb/s
Width                                  : 1 920 pixels
Height                                 : 796 pixels
Display aspect ratio                   : 2.40:1
Frame rate mode                        : Constant
Frame rate                             : 23.976 FPS
Color space                            : YUV
Chroma subsampling                     : 4:2:0
Bit depth                              : 8 bits
Scan type                              : Progressive
Bits/(Pixel*Frame)                     : 0.123
Stream size                            : 3.82 GiB (92%)
Language                               : English
Default                                : Yes
Forced                                 : No
Color range                            : Limited
Color primaries                        : BT.709
Transfer characteristics               : BT.709
Matrix coefficients                    : BT.709

Audio
ID                                     : 2
Format                                 : AC-3
Format/Info                            : Audio Coding 3
Format settings, Endianness            : Big
Codec ID                               : A_AC3
Duration                               : 2 h 0 min
Bit rate mode                          : Constant
Bit rate                               : 384 kb/s
Channel(s)                             : 6 channels
Channel positions                      : Front: L C R, Side: L R, LFE
Sampling rate                          : 48.0 kHz
Frame rate                             : 31.250 FPS (1536 SPF)
Bit depth                              : 16 bits
Compression mode                       : Lossy
Delay relative to video                : -43 ms
Stream size                            : 332 MiB (8%)
Language                               : English
Service kind                           : Complete Main
Default                                : Yes
Forced                                 : No

Text
ID                                     : 3
Format                                 : UTF-8
Codec ID                               : S_TEXT/UTF8
Codec ID/Info                          : UTF-8 Plain Text
Duration                               : 1 h 59 min
Bit rate                               : 34 b/s
Count of elements                      : 1023
Stream size                            : 30.1 KiB (0%)
Language                               : Spanish
Default                                : Yes
Forced                                 : No

Menu
00:00:00.000                           : en:1
00:06:49.034                           : en:2
00:13:21.634                           : en:3
00:16:42.459                           : en:4
00:27:09.919                           : en:5
00:34:04.458                           : en:6
00:41:04.543                           : en:7
00:47:07.613                           : en:8
00:54:16.333                           : en:9
01:02:16.813                           : en:10
01:11:17.727                           : en:11
01:18:38.125                           : en:12
01:25:18.942                           : en:13
01:31:39.238                           : en:14
01:40:09.330                           : en:15
01:52:13.720                           : en:16

 

Download Links

CONTRASEÑA PARA DESCOMPRIMIR

APORTES NUEVOS

cinemaniahdd.com

APORTES VIEJOS

CinemaniaHD.org

COMPRA O RENUEVA TU PREMIUM DE UPLOADED DESDE EL SIGUIENTE LINK:

http://ul.to/ref/9821430

SI GUSTAS PUEDES SEGUIRNOS EN LAS REDES SOCIALES

Facebook

Twitter

Post Relacionados