El reverendo (2017) 1080p Latino

El reverendo [First Reformed] (2017) 1080p Latino. Mega, Google Drive; El encuentro con un activista y su esposa embarazada (Amanda Seyfried) radicaliza la ideología de un pastor evangélico (Ethan Hawke), un antiguo capellán del ejército todavía marcado por la muerte de su hijo en Irak, que dirige una pequeña iglesia en el norte del estado de Nueva York.

Nota:
La fecha de estreno original es 2017, aunque en muchos paises se haya estrenado hasta 2018.
No, No esta mal el Encoding, la relacion de aspecto es 1.34:1 (4:3) en lugar de la comunmente usada 2.39:1.



Titulo original First Reformed
Audio Español Latino AC3 5.1 DVD - Ingles AC3 5.1 BLURAY
Calidad: 1080p Resolucion: 1444x1080p Formato: MKV
Encoder: CinefiloCool Peso: 3.36 GiB Duracion: 1h 53m
Subtitulos: Español Latino SRT
  • No hay video embed

El Reverendo (2017) 1080p Latino.mkv
Format: Matroska
Format version: Version 4 / Version 2
File size : 3.37 GiB
Duration: 1 h 53 min
Overall bit rate: 4 256 kb/s
Movie name: CinemaniaHDD.Net
Encoded date: UTC 2018-10-09 16:00:04 / UTC 2018-10-09T03:39:28Z
Writing application : mkvmerge v25.0.0 ('Prog Noir') 64-bit
Writing library : libebml v1.3.6 + libmatroska v1.4.9 / Lavf57.7.2

Video
ID: 1
Format: AVC
Format/Info : Advanced Video Codec
Format profile: High@L4.1
Format settings : CABAC / 5 Ref Frames
Format settings, CABAC: Yes
Format settings, RefFrames: 5 frames
Codec ID: V_MPEG4/ISO/AVC
Duration: 1 h 53 min
Bit rate: 3 500 kb/s
Width : 1 444 pixels
Height: 1 080 pixels
Display aspect ratio: 4:3
Frame rate mode : Constant
Frame rate: 23.976 (24000/1001) FPS
Color space : YUV
Chroma subsampling: 4:2:0
Bit depth : 8 bits
Scan type : Progressive
Bits/(Pixel*Frame): 0.094
Stream size : 2.64 GiB (78%)
Title : HD1080p [Bluray]
Writing library : x264 core 155 r2893 b00bcaf
Encoding settings : cabac=1 / ref=5 / deblock=1:0:0 / analyse=0x3:0x113 / me=hex / subme=8 / psy=1 / psy_rd=1.00:0.00 / mixed_ref=1 / me_range=16 / chroma_me=1 / trellis=2 / 8x8dct=1 / cqm=0 / deadzone=21,11 / fast_pskip=1 / chroma_qp_offset=-2 / threads=34 / lookahead_threads=5 / sliced_threads=0 / nr=0 / decimate=1 / interlaced=0 / bluray_compat=0 / constrained_intra=0 / bframes=3 / b_pyramid=2 / b_adapt=1 / b_bias=0 / direct=3 / weightb=1 / open_gop=0 / weightp=2 / keyint=240 / keyint_min=24 / scenecut=40 / intra_refresh=0 / rc_lookahead=50 / rc=abr / mbtree=1 / bitrate=3500 / ratetol=1.0 / qcomp=0.60 / qpmin=0 / qpmax=69 / qpstep=4 / vbv_maxrate=62500 / vbv_bufsize=78125 / nal_hrd=none / filler=0 / ip_ratio=1.40 / aq=1:1.00
Default : Yes
Forced: No
Color range : Limited
Color primaries : BT.709
Transfer characteristics: BT.709
Matrix coefficients : BT.709
Statistics Tags Issue : mkvmerge v25.0.0 ('Prog Noir') 64-bit 2018-10-09 16:00:04 / mkvmerge v25.0.0 ('Prog Noir') 64-bit 2018-10-09 16:00:04 / UTC 2018-10-09T03:39:28Z
FromStats_BitRate : 3422615
FromStats_Duration: 01:53:13.829000000
FromStats_FrameCount: 162889
FromStats_StreamSize: 2906582675

Audio #1
ID: 2
Format: AC-3
Format/Info : Audio Coding 3
Format settings, Endianness : Big
Codec ID: A_AC3
Duration: 1 h 53 min
Bit rate mode : Constant
Bit rate: 384 kb/s
Channel(s): 6 channels
Channel positions : Front: L C R, Side: L R, LFE
Sampling rate : 48.0 kHz
Frame rate: 31.250 FPS (1536 SPF)
Bit depth : 16 bits
Compression mode: Lossy
Delay relative to video : -5 ms
Stream size : 311 MiB (9%)
Title : AC3_5.1_DVD_Esp
Language: Spanish
Service kind: Complete Main
Default : Yes
Forced: No
Statistics Tags Issue : mkvmerge v25.0.0 ('Prog Noir') 64-bit 2018-10-09 16:00:04 / mkvmerge v25.0.0 ('Prog Noir') 64-bit 2018-10-09 16:00:04 / UTC 2018-10-09T03:39:28Z
FromStats_BitRate : 384000
FromStats_Duration: 01:53:05.824000000
FromStats_FrameCount: 212057
FromStats_StreamSize: 325719552

Audio #2
ID: 3
Format: AC-3
Format/Info : Audio Coding 3
Format settings, Endianness : Big
Codec ID: A_AC3
Duration: 1 h 53 min
Bit rate mode : Constant
Bit rate: 448 kb/s
Channel(s): 6 channels
Channel positions : Front: L C R, Side: L R, LFE
Sampling rate : 48.0 kHz
Frame rate: 31.250 FPS (1536 SPF)
Bit depth : 16 bits
Compression mode: Lossy
Stream size : 363 MiB (11%)
Title : AC3_5.1_Bluray_Eng
Language: English
Service kind: Complete Main
Default : No
Forced: No
Statistics Tags Issue : mkvmerge v25.0.0 ('Prog Noir') 64-bit 2018-10-09 16:00:04 / mkvmerge v25.0.0 ('Prog Noir') 64-bit 2018-10-09 16:00:04 / UTC 2018-10-09T03:39:28Z
FromStats_BitRate : 448000
FromStats_Duration: 01:53:13.824000000
FromStats_FrameCount: 212307
FromStats_StreamSize: 380454144

Text
ID: 4
Format: UTF-8
Codec ID: S_TEXT/UTF8
Codec ID/Info : UTF-8 Plain Text
Title : Sub_Esp
Language: Spanish
Default : Yes
Forced: No
Statistics Tags Issue : mkvmerge v25.0.0 ('Prog Noir') 64-bit 2018-10-09 16:00:04 / mkvmerge v25.0.0 ('Prog Noir') 64-bit 2018-10-09 16:00:04 / UTC 2018-10-09T03:39:28Z
FromStats_BitRate : 64
FromStats_Duration: 01:47:27.111000000
FromStats_FrameCount: 1452
FromStats_StreamSize: 52022

Menu
00:00:00.000: :Chapter 1
00:07:32.744: :Chapter 2
00:08:48.486: :Chapter 3
00:21:52.853: :Chapter 4
00:30:52.726: :Chapter 5
00:36:41.950: :Chapter 6
00:41:54.262: :Chapter 7
00:50:03.042: :Chapter 8
00:55:18.482: :Chapter 9
01:04:40.794: :Chapter 10
01:11:00.006: :Chapter 11
01:16:19.366: :Chapter 12
01:25:24.119: :Chapter 13
01:30:49.486: :Chapter 14
01:38:48.965: :Chapter 15
01:45:22.525: :Chapter 16

Download Links

CONTRASEÑA PARA DESCOMPRIMIR

APORTES NUEVOS

cinemaniahdd.com

APORTES VIEJOS

CinemaniaHD.org

COMPRA O RENUEVA TU PREMIUM DE UPLOADED DESDE EL SIGUIENTE LINK:

http://ul.to/ref/9821430

SI GUSTAS PUEDES SEGUIRNOS EN LAS REDES SOCIALES

Facebook

Twitter

Post Relacionados