El Rey Escorpión: El Libro de las Almas (2018) 1080p Latino

Descargar El Rey Escorpión: El Libro de las Almas (2018) 1080p Latino; Mega, Google Drive. El Rey Escorpión se une a una guerrera llamada Tala, que es hermana del Rey Nubio. Juntos, buscan una reliquia legendaria conocida como El libro de las almas, que les permitirá acabar con un malvado señor de la guerra.



Titulo Original The Scorpion King: Book of Souls
Año 2018-10-23
Duracion 1h 42m
Director
Reparto , , , , , , , ,
Productora
Genero
Titulo original The Scorpion King: Book of Souls
Audio Español Latino AC3 5.1 BLURAY - Ingles AC3 5.1 BLURAY
Calidad: 1080p Resolucion: 1920x1080p Formato: MKV
Encoder: CinefiloCool Peso: 3.10 GiB Duracion: 1h 42m
Subtitulos: Español Latino SRT - Ingles SRT
  • No hay video embed

El Rey Escorpion El Libro de las Almas (2018) 1080p Latino.mkv
Format: Matroska
Format version: Version 4 / Version 2
File size : 3.10 GiB
Duration: 1 h 41 min
Overall bit rate: 4 363 kb/s
Movie name: CinemaniaHDD.Net
Encoded date: UTC 2018-10-30 03:25:05 / UTC 2018-10-29T08:21:41Z
Writing application : mkvmerge v25.0.0 ('Prog Noir') 64-bit
Writing library : libebml v1.3.6 + libmatroska v1.4.9 / Lavf57.7.2

Video
ID: 1
Format: AVC
Format/Info : Advanced Video Codec
Format profile: High@L4.1
Format settings : CABAC / 4 Ref Frames
Format settings, CABAC: Yes
Format settings, RefFrames: 4 frames
Codec ID: V_MPEG4/ISO/AVC
Duration: 1 h 41 min
Bit rate: 3 500 kb/s
Width : 1 920 pixels
Height: 1 080 pixels
Display aspect ratio: 16:9
Frame rate mode : Constant
Frame rate: 23.976 (24000/1001) FPS
Color space : YUV
Chroma subsampling: 4:2:0
Bit depth : 8 bits
Scan type : Progressive
Bits/(Pixel*Frame): 0.070
Stream size : 2.40 GiB (77%)
Title : HD1080p [Bluray]
Writing library : x264 core 155 r2893 b00bcaf
Encoding settings : cabac=1 / ref=4 / deblock=1:0:0 / analyse=0x3:0x113 / me=hex / subme=8 / psy=1 / psy_rd=1.00:0.00 / mixed_ref=1 / me_range=16 / chroma_me=1 / trellis=2 / 8x8dct=1 / cqm=0 / deadzone=21,11 / fast_pskip=1 / chroma_qp_offset=-2 / threads=34 / lookahead_threads=5 / sliced_threads=0 / nr=0 / decimate=1 / interlaced=0 / bluray_compat=0 / constrained_intra=0 / bframes=3 / b_pyramid=2 / b_adapt=1 / b_bias=0 / direct=3 / weightb=1 / open_gop=0 / weightp=2 / keyint=240 / keyint_min=24 / scenecut=40 / intra_refresh=0 / rc_lookahead=50 / rc=abr / mbtree=1 / bitrate=3500 / ratetol=1.0 / qcomp=0.60 / qpmin=0 / qpmax=69 / qpstep=4 / vbv_maxrate=62500 / vbv_bufsize=78125 / nal_hrd=none / filler=0 / ip_ratio=1.40 / aq=1:1.00
Default : Yes
Forced: No
Color range : Limited
Color primaries : BT.709
Transfer characteristics: BT.709
Matrix coefficients : BT.709
Statistics Tags Issue : mkvmerge v25.0.0 ('Prog Noir') 64-bit 2018-10-30 03:25:05 / mkvmerge v25.0.0 ('Prog Noir') 64-bit 2018-10-30 03:25:05 / UTC 2018-10-29T08:21:41Z
FromStats_BitRate : 3464953
FromStats_Duration: 01:41:50.521000000
FromStats_FrameCount: 146506
FromStats_StreamSize: 2646584089

Audio #1
ID: 2
Format: AC-3
Format/Info : Audio Coding 3
Format settings, Endianness : Big
Codec ID: A_AC3
Duration: 1 h 41 min
Bit rate mode : Constant
Bit rate: 448 kb/s
Channel(s): 6 channels
Channel positions : Front: L C R, Side: L R, LFE
Sampling rate : 48.0 kHz
Frame rate: 31.250 FPS (1536 SPF)
Bit depth : 16 bits
Compression mode: Lossy
Delay relative to video : 12 ms
Stream size : 326 MiB (10%)
Title : AC3_5.1_Bluray_Esp
Language: Spanish
Service kind: Complete Main
Default : Yes
Forced: Yes
Statistics Tags Issue : mkvmerge v25.0.0 ('Prog Noir') 64-bit 2018-10-30 03:25:05 / mkvmerge v25.0.0 ('Prog Noir') 64-bit 2018-10-30 03:25:05 / UTC 2018-10-29T08:21:41Z
FromStats_BitRate : 448000
FromStats_Duration: 01:41:50.592000000
FromStats_FrameCount: 190956
FromStats_StreamSize: 342193152

Audio #2
ID: 3
Format: AC-3
Format/Info : Audio Coding 3
Format settings, Endianness : Big
Codec ID: A_AC3
Duration: 1 h 41 min
Bit rate mode : Constant
Bit rate: 448 kb/s
Channel(s): 6 channels
Channel positions : Front: L C R, Side: L R, LFE
Sampling rate : 48.0 kHz
Frame rate: 31.250 FPS (1536 SPF)
Bit depth : 16 bits
Compression mode: Lossy
Delay relative to video : 12 ms
Stream size : 326 MiB (10%)
Title : AC3_5.1_Bluray_Eng
Language: English
Service kind: Complete Main
Default : No
Forced: No
Statistics Tags Issue : mkvmerge v25.0.0 ('Prog Noir') 64-bit 2018-10-30 03:25:05 / mkvmerge v25.0.0 ('Prog Noir') 64-bit 2018-10-30 03:25:05 / UTC 2018-10-29T08:21:41Z
FromStats_BitRate : 448000
FromStats_Duration: 01:41:50.592000000
FromStats_FrameCount: 190956
FromStats_StreamSize: 342193152

Text #1
ID: 4
Format: UTF-8
Codec ID: S_TEXT/UTF8
Codec ID/Info : UTF-8 Plain Text
Title : Sub_Esp
Language: Spanish
Default : Yes
Forced: No
Statistics Tags Issue : mkvmerge v25.0.0 ('Prog Noir') 64-bit 2018-10-30 03:25:05 / mkvmerge v25.0.0 ('Prog Noir') 64-bit 2018-10-30 03:25:05 / UTC 2018-10-29T08:21:41Z
FromStats_BitRate : 33
FromStats_Duration: 01:36:21.820000000
FromStats_FrameCount: 763
FromStats_StreamSize: 24518

Text #2
ID: 5
Format: UTF-8
Codec ID: S_TEXT/UTF8
Codec ID/Info : UTF-8 Plain Text
Title : Sub_Eng
Language: English
Default : No
Forced: No
Statistics Tags Issue : mkvmerge v25.0.0 ('Prog Noir') 64-bit 2018-10-30 03:25:05 / mkvmerge v25.0.0 ('Prog Noir') 64-bit 2018-10-30 03:25:05 / UTC 2018-10-29T08:21:41Z
FromStats_BitRate : 32
FromStats_Duration: 01:36:21.576000000
FromStats_FrameCount: 769
FromStats_StreamSize: 23399

Menu
00:00:00.000: :Chapter 1
00:06:22.382: :Chapter 2
00:13:15.795: :Chapter 3
00:15:55.955: :Chapter 4
00:17:33.052: :Chapter 5
00:22:09.328: :Chapter 6
00:27:49.668: :Chapter 7
00:33:46.024: :Chapter 8
00:39:03.341: :Chapter 9
00:43:51.629: :Chapter 10
00:49:44.982: :Chapter 11
00:53:48.225: :Chapter 12
01:00:50.647: :Chapter 13
01:07:22.038: :Chapter 14
01:12:01.317: :Chapter 15
01:18:37.713: :Chapter 16
01:21:24.880: :Chapter 17
01:25:22.117: :Chapter 18
01:30:35.430: :Chapter 19
01:36:58.813: :Chapter 20

Download Links

CONTRASEÑA PARA DESCOMPRIMIR

APORTES NUEVOS

cinemaniahdd.com

APORTES VIEJOS

CinemaniaHD.org

COMPRA O RENUEVA TU PREMIUM DE UPLOADED DESDE EL SIGUIENTE LINK:

http://ul.to/ref/9821430

SI GUSTAS PUEDES SEGUIRNOS EN LAS REDES SOCIALES

Facebook

Twitter

Post Relacionados